Поиск

(Afro-Cuban Jazz) Chucho Valdes - New Conceptions - 2003, FLAC (tracks+.cue), lossless

(Afro-Cuban Jazz) Chucho Valdes - New Conceptions - 2003, FLAC (tracks+.cue), lossless
Треклист:
Chucho Valdes — New Conceptions
Жанр: Afro-Cuban Jazz
Год издания диска: 2003
Издатель (лейбл): Blue Note
Номер по каталогу: 7243 5 92602 2 8
Аудиокодек: FLAC (*.flac)
Тип рипа: tracks+.cue
Битрейт аудио: lossless
Продолжительность: 57:17
Rip by Sarchiapone
Наличие сканов в содержимом раздачи: да
Треклист:
01. La Comparsa (6:57)
02. You Don't Know What Love Is (8:45)
03. Los Guiros (5:51)
04. Nanu (4:45)
05. Solar (11:25)
06. Sin Clave Pero Con Swing (8:27)
07. Hamenaje A Ellington (11:07)
Personnel:
Chucho Valdes - p
Yaroldy Abreu Robles - cga
Lazaro Rivero Alarcon - b
Ramses Rodriguez Baralt - d
Guests artists:
Maylin Sevila Brizuela (4) - clo
Jacinto Joaquin Olivero Gavilan (1) - fl
Roman Filiu O'Reilly (2) - as
Irving Luichel Acao Tierra (5, 7) - ts
and others.
Rec.: Abdala Studios, May 18-20, 2002.
 
 
Лог создания рипа
EAC extraction logfile from 7. February 2008, 15:59 for CD
Chucho Valdes / New Conceptions
Used drive : PLEXTOR CD-R PREMIUM2 Adapter: 1 ID: 1
Read mode : Secure with NO C2, accurate stream, disable cache
Read offset correction : 30
Overread into Lead-In and Lead-Out : No
Used output format : C:\Programmi\FLAC\flac.exe (User Defined Encoder)
32 kBit/s
Additional command line options : -8 -V -T "ARTIST=%a" -T "TITLE=%t" -T "ALBUM=%g" -T "DATE=%y" -T "TRACKNUMBER=%n" -T "GENRE=%m" -T "COMMENT=EAC FLAC -8" %s
Other options :
Fill up missing offset samples with silence : Yes
Delete leading and trailing silent blocks : No
Installed external ASPI interface
Track 1
Filename C:\My Rip\01 - La Comparsa.wav
Pre-gap length 0:00:02.00
Peak level 98.8 %
Track quality 100.0 %
Test CRC FA25EA93
Copy CRC FA25EA93
Copy OK
Track 2
Filename C:\My Rip\02 - You Don't Know What Love Is.wav
Peak level 98.8 %
Track quality 100.0 %
Test CRC 55806454
Copy CRC 55806454
Copy OK
Track 3
Filename C:\My Rip\03 - Los Guiros.wav
Peak level 98.8 %
Track quality 100.0 %
Test CRC CBAF4D91
Copy CRC CBAF4D91
Copy OK
Track 4
Filename C:\My Rip\04 - Nanu.wav
Peak level 98.8 %
Track quality 100.0 %
Test CRC 2F2F8348
Copy CRC 2F2F8348
Copy OK
Track 5
Filename C:\My Rip\05 - Solar.wav
Peak level 92.0 %
Track quality 100.0 %
Test CRC BD65A513
Copy CRC BD65A513
Copy OK
Track 6
Filename C:\My Rip\06 - Sin Clave Pero Con Swing.wav
Peak level 98.8 %
Track quality 99.9 %
Test CRC 764BF0EE
Copy CRC 764BF0EE
Copy OK
Track 7
Filename C:\My Rip\07 - Hamenaje A Ellington.wav
Peak level 98.8 %
Track quality 100.0 %
Test CRC 21E51399
Copy CRC 21E51399
Copy OK
No errors occured
End of status report
 
Содержание индексной карты (.CUE)
REM GENRE Jazz
REM DATE 2003
REM DISCID 71115608
REM COMMENT "ExactAudioCopy v0.95b3"
PERFORMER "Chucho Valdes"
TITLE "New Conceptions"
FILE "01 - La Comparsa.flac" WAVE
TRACK 01 AUDIO
TITLE "La Comparsa"
PERFORMER "Chucho Valdes"
INDEX 01 00:00:00
FILE "02 - You Don't Know What Love Is.flac" WAVE
TRACK 02 AUDIO
TITLE "You Don't Know What Love Is"
PERFORMER "Chucho Valdes"
INDEX 01 00:00:00
FILE "03 - Los Guiros.flac" WAVE
TRACK 03 AUDIO
TITLE "Los Guiros"
PERFORMER "Chucho Valdes"
INDEX 01 00:00:00
FILE "04 - Nanu.flac" WAVE
TRACK 04 AUDIO
TITLE "Nanu"
PERFORMER "Chucho Valdes"
INDEX 01 00:00:00
FILE "05 - Solar.flac" WAVE
TRACK 05 AUDIO
TITLE "Solar"
PERFORMER "Chucho Valdes"
INDEX 01 00:00:00
FILE "06 - Sin Clave Pero Con Swing.flac" WAVE
TRACK 06 AUDIO
TITLE "Sin Clave Pero Con Swing"
PERFORMER "Chucho Valdes"
INDEX 01 00:00:00
FILE "07 - Hamenaje A Ellington.flac" WAVE
TRACK 07 AUDIO
TITLE "Hamenaje A Ellington"
PERFORMER "Chucho Valdes"
INDEX 01 00:00:00
02:23
247
Нет комментариев. Ваш будет первым!