Поиск

(Latin Jazz) Charlie Sepulveda & The Turnaround - 2008, APE (image+.cue), lossless

Треклист:
Charlie Sepulveda & The Turnaround
Жанр: Latin Jazz
Год издания диска: 2008
Издатель (лейбл): Turnaround Records
Страна: Пуэрто-Рико
Аудиокодек: APE (*.ape)
Тип рипа: image+.cue
Битрейт аудио: lossless
Продолжительность: 69:58
Источник (релизер): dreadbull (hqshare)
Наличие сканов в содержимом раздачи: да
Треклист:
01. Something Cute (Lee Morgan) - 6:38
02. Don't You Worry About a Thing (Stevie Wonder) - 7:09
03. Si Tú Sabes (Sepulveda) - 10:34
04. Mr. Jazz (Sepulveda) - 6:00
05. Chang's Song (Herbie Hancock) - 4:38
06. Bomba Pa' Carmen (Sepulveda) - 6:34
07. Mo Better Blues (Mike Lee) - 6:54
08. Gubraltar (Freddie Hubbard) - 7:22
09. Mírame Más (Julio Gutiérrez) - 6:40
10. Caribeño (Gabriel Rodríguez) - 7:01
 
Лог создания рипа
EAC extraction logfile from 5. May 2011, 18:43 for CD
Charlie Sepulveda & The Turnaround / Charlie Sepulveda & The Turnaround
Used drive : ASUS DRW-22B2L Adapter: 0 ID: 1
Read mode : Secure with NO C2, accurate stream, disable cache
Read offset correction : 6
Overread into Lead-In and Lead-Out : No
Used output format : Internal WAV Routines
44.100 Hz; 16 Bit; Stereo
Other options :
Fill up missing offset samples with silence : Yes
Delete leading and trailing silent blocks : No
Installed external ASPI interface
Range status and errors
Selected range
Filename D:\Donkey Files\Charlie Sepulveda & The Turnaround (2008, Turnaround) [eac-ape-scans] byDrBull\CDImage.wav
Peak level 100.0 %
Range quality 100.0 %
CRC 659D8376
Copy OK
No errors occured
End of status report
 
Содержание индексной карты (.CUE)
PERFORMER "Charlie Sepulveda & The Turnaround"
TITLE "Charlie Sepulveda & The Turnaround"
FILE "Charlie Sepulveda & The Turnaround.wav" WAVE
TRACK 01 AUDIO
TITLE "Something Cute"
PERFORMER "Charlie Sepulveda & The Turnaround"
INDEX 01 00:00:00
TRACK 02 AUDIO
TITLE "Don't You Worry About a Thing"
PERFORMER "Charlie Sepulveda & The Turnaround"
INDEX 01 06:42:46
TRACK 03 AUDIO
TITLE "Si Tu Sabes"
PERFORMER "Charlie Sepulveda & The Turnaround"
INDEX 01 13:54:22
TRACK 04 AUDIO
TITLE "Mr. Jazz"
PERFORMER "Charlie Sepulveda & The Turnaround"
INDEX 01 24:30:57
TRACK 05 AUDIO
TITLE "Chang's Song"
PERFORMER "Charlie Sepulveda & The Turnaround"
INDEX 01 30:33:73
TRACK 06 AUDIO
TITLE "Bomba Pa' Carmen"
PERFORMER "Charlie Sepulveda & The Turnaround"
INDEX 01 35:14:34
TRACK 07 AUDIO
TITLE "Mo Better Blues"
PERFORMER "Charlie Sepulveda & The Turnaround"
INDEX 01 41:51:36
TRACK 08 AUDIO
TITLE "Gibraltar"
PERFORMER "Charlie Sepulveda & The Turnaround"
INDEX 01 48:48:14
TRACK 09 AUDIO
TITLE "Mirame Mas"
PERFORMER "Charlie Sepulveda & The Turnaround"
INDEX 01 56:13:58
TRACK 10 AUDIO
TITLE "Caribeno"
PERFORMER "Charlie Sepulveda & The Turnaround"
INDEX 01 62:56:26
 
Review by Bill Meredith
At age 20, Charlie Sepulveda earned the first trumpet slot in the band of another native New Yorker of Puerto Rican ancestry, heralded pianist Eddie Palmieri. Twenty-five years later, after working with stars from Dizzy Gillespie to Tito Puente, Sepulveda has further proof that his studies at City College of New York, and in Puerto Rico, were fruitful. He started a solo recording career in 1991, but has only seven CDs, partly because he’s been busy giving back as a professor at the Conservatorio de Música de Puerto Rico.
The latest, Charlie Sepulveda & the Turnaround, is an audio textbook in combining disparate studio crispness with concert energy. Sepulveda also studied at the conservatory, and at the Universidad de Puerto Rico. The university’s campus radio station, WRTU, has state-of-the-art digital equipment, so the trumpeter recorded the seven-piece band live in the studio.
Sepulveda covers vintage material by Lee Morgan (“Something Cute”), Herbie Hancock (“Chan’s Song”) and Freddie Hubbard (“Gibraltar”), bringing something new to each through creative arrangements. A band of this size requires attention to detail when recording live, but pianist Eduardo Zayas and vibraphonist Felipe Fournier keep Stevie Wonder’s “Don’t You Worry ’Bout a Thing” creatively uncluttered by alternately setting up and answering Sepulveda and saxophonist Norberto Ortiz.
The trumpeter’s originals range from some of the disc’s most rhythmically simple (“Si tu Sabes”) to “Mr. Jazz,” his churning dedication to Puerto Rican radio host Wito Morales. Bassist Gabriel Rodriguez is a unifying force throughout the CD, and drummer Raul Maldonado and conguero Gadwin Vargas leave each other—and everyone else—just the right amount of space on Sepulveda’s complex “Bomba Pa’ Carmen.” The leader also adds muted trumpet on Mike Lee’s “Mo’ Better Blues,” and salutes Puente on Julio Gutierrez’s poignant “Mirame Mas.”
 
Состав
Charlie Sepúlveda - trumpet & flugelhorn
Eduardo Zayas - piano
Gabriel Rodríguez - bass
Gadwin Vargas - congas
Raúl Maldonado - drums
Norberto "Tiko" Ortiz - tenor sax
Felipe Fournier - vibes
Recorded live on March 26-27, 2008 at Radio Universidad de Puerto Rico.
22:50
329
Нет комментариев. Ваш будет первым!