Поиск

(Klezmer Jazz, Tzadik) Tim Sparks / Little Princess - Tim Sparks Plays Naftule Brandwein - 2009, FLAC (image+.cue), lossless

Tim Sparks / Little Princess - Tim Sparks Plays Naftule Brandwein
Жанр: Klezmer Jazz, Tzadik
Страна-производитель диска: USA
Год издания диска: 2009
Издатель (лейбл): Tzadik
Номер по каталогу: TZ8143
Страна: USA
Аудиокодек: FLAC (*.flac)
Тип рипа: image+.cue
Битрейт аудио: lossless
Продолжительность: 49:18
Источник (релизер): CD
Наличие сканов в содержимом раздачи: да
Треклист:
01 - The Rebbe's Hasid Brandwein (5:04)
02 - Der Yid in Jerusalem (6:22)
03 - Oh Daddy, That's Good (4:51)
04 - Little Princess (3:18)
05 - Nifty's Freylekh (4:45)
06 - A Few Bowls Terkish (5:22)
07 - The Dearest in Bukovina (4:23)
08 - Leben Zol Palestina (5:38)
09 - Turkish Circle Dance (4:37)
10 - A Bagel with Onions (4:54)
 
Лог создания рипа
Exact Audio Copy V1.0 beta 2 from 29. April 2011
EAC extraction logfile from 6. July 2011, 9:38
Tim Sparks / Little Princess - Tim Sparks Plays Naftule Brandwein
Used drive : Optiarc DVD RW AD-7240S Adapter: 2 ID: 0
Read mode : Secure
Utilize accurate stream : Yes
Defeat audio cache : Yes
Make use of C2 pointers : No
Read offset correction : 48
Overread into Lead-In and Lead-Out : No
Fill up missing offset samples with silence : Yes
Delete leading and trailing silent blocks : No
Null samples used in CRC calculations : Yes
Used interface : Native Win32 interface for Win NT & 2000
Used output format : User Defined Encoder
Selected bitrate : 768 kBit/s
Quality : High
Add ID3 tag : No
Command line compressor : C:\Program Files\Exact Audio Copy\FLAC\FLAC.EXE
Additional command line options : -6 -V -T "ARTIST=%artist%" -T "TITLE=%title%" -T "ALBUM=%albumtitle%" -T "DATE=%year%" -T "TRACKNUMBER=%tracknr%" -T "GENRE=%genre%" -T "COMMENT=%comment%" -T "BAND=%albuminterpret%" -T "COMPOSER=%composer%" %haslyrics%--ta
TOC of the extracted CD
Track | Start | Length | Start sector | End sector
---------------------------------------------------------
1 | 0:00.00 | 5:04.60 | 0 | 22859
2 | 5:04.60 | 6:21.72 | 22860 | 51506
3 | 11:26.57 | 4:51.52 | 51507 | 73383
4 | 16:18.34 | 3:18.45 | 73384 | 88278
5 | 19:37.04 | 4:45.15 | 88279 | 109668
6 | 24:22.19 | 5:22.31 | 109669 | 133849
7 | 29:44.50 | 4:22.71 | 133850 | 153570
8 | 34:07.46 | 5:38.54 | 153571 | 178974
9 | 39:46.25 | 4:37.56 | 178975 | 199805
10 | 44:24.06 | 4:53.70 | 199806 | 221850
Range status and errors
Selected range
Filename C:\Documents and Settings\User\Мои документы\Tim Sparks - Little Princess - Tim Sparks Plays Naftule Brandwein.wav
Peak level 96.6 %
Extraction speed 3.7 X
Range quality 100.0 %
Test CRC 6F95CC1A
Copy CRC 6F95CC1A
Copy OK
No errors occurred
End of status report
 
Содержание индексной карты (.CUE)
REM GENRE Klezmer
REM DATE 2009
REM DISCID A10B8E0A
REM COMMENT "ExactAudioCopy v1.0b2"
PERFORMER "Tim Sparks"
TITLE "Little Princess - Tim Sparks Plays Naftule Brandwein"
FILE "Tim Sparks - Little Princess - Tim Sparks Plays Naftule Brandwein.flac" WAVE
TRACK 01 AUDIO
TITLE "The Rebbe's Hasid"
PERFORMER "Tim Sparks"
INDEX 01 00:00:00
TRACK 02 AUDIO
TITLE "Der Yid In Jerusalem"
PERFORMER "Tim Sparks"
INDEX 01 05:04:60
TRACK 03 AUDIO
TITLE "Oh Daddy, That's Good"
PERFORMER "Tim Sparks"
INDEX 01 11:26:57
TRACK 04 AUDIO
TITLE "Little Princess"
PERFORMER "Tim Sparks"
INDEX 00 16:17:27
INDEX 01 16:18:34
TRACK 05 AUDIO
TITLE "Nifty's Freylekh"
PERFORMER "Tim Sparks"
INDEX 01 19:37:04
TRACK 06 AUDIO
TITLE "A Few Bowls Terkish"
PERFORMER "Tim Sparks"
INDEX 01 24:22:19
TRACK 07 AUDIO
TITLE "The Dearest In Bukovina"
PERFORMER "Tim Sparks"
INDEX 01 29:44:50
TRACK 08 AUDIO
TITLE "Leben Zol Palestinia"
PERFORMER "Tim Sparks"
INDEX 01 34:07:46
TRACK 09 AUDIO
TITLE "Turkish Circle Dance"
PERFORMER "Tim Sparks"
INDEX 01 39:46:25
TRACK 10 AUDIO
TITLE "A Bagel With Onions"
PERFORMER "Tim Sparks"
INDEX 01 44:24:06
 
Доп. информация
Another fabulous CD of traditional Jewish music arranged for fingerstyle guitar and performed by the wonderful trio of Tim Sparks, Greg Cohen and Cyro Baptista, whose CD Tanz was released in 2000 to great acclaim. Focusing this time on the traditional repertoire of the great Klezmer clarinetist Naftule Brandwein, the arrangements are delightful, highlighting Tim's elegant guitar style and fine ear for detail and harmonic sophistication. Naftule features colorful and lyrical music that takes the Jewish tradition into the 21st century with style, originality and a charming sense of wit.
 
Об исполнителе (группе)
Acoustic fingerstyle guitarist Tim Sparks has always set himself apart from the pack of his peers. Rather than rely strictly on playing blues or age-old folk and bluegrass tunes, or even following in the well-worn paths of John Fahey, Peter Lang, and Robbie Basho, Sparks has followed his muse down into the corridors of musical and cultural history. While no one can dent the influence of great jazzmen on his playing, one can hear the sounds of saxophonists, pianists, and of course the sounds of Yiddish folk and popular music, klezmer among them. In 2000, Sparks recorded Tanz, his third album for John Zorn's Tzadik imprint. It was a departure from his previous two in that it wasn't a solo but a trio record. His partners on that musical journey were veteran bassist Greg Cohen and master percussionist Cyro Baptista. The set was brilliant and innovative, creating an entirely new perspective on Jewish music from the beginning of the 20th century to the commencement of the 21st. It contained a slew of traditional songs and also featured four tunes by the original klezmer legend, clarinetist and composer Naftule Brandwein. The same trio reconvened in 2002 for At the Rebbe's Table, for a similar program that also contained tunes by Brandwein. Seven long years later, this trio once more reunites to perform an entire program of his work, and the results are quite astonishing.
 
Об альбоме (сборнике)
For starters, here are the group members playing together after all this time and being more emotionally and musically attuned to one another than ever before. Next there is Sparks' own playing, which was always jaw-dropping, but has risen to a such a level that now he's virtually in a league of his own. The way he combines so many different musical techniques and genres into his own idiosyncratic fingerstyle picking is not only technically remarkable, it's savvy and wildly creative at the same time. Check the way he weaves flamenco styles into Brandwein's take on a traditional Yiddish folk melody in "Der Yid in Jerusalem." Here, Baptista accents the Latin rhythms on claves and hand drums, and Sparks weaves Charlie Christian, Tal Farlow, and elements of Carlos Montoya into his playing of Brandwein's melody. The sprightly "Oh Daddy, That's Good" weaves some gorgeous modal and overtone playing into the melody, stretching the harmony to - but never over - the breaking point. The interplay between Cohen and Baptista is so delightfully sophisticated that all the listener can do is smile. The use of harmonics in "A Few Bowls Terkish" (sic) draws from the influence of guitarist Bert Jansch to further a series of modal interludes that flow into some gorgeous jazz playing on the changes by the composer. Highlighting these tracks doesn't mean that they are the album's finest moments at all. Virtually every one of these ten cuts is an example of how intuitive, sophisticated, and creative Sparks is, not only as a player and interpreter, but as an arranger so canny that the listener would think all of these songs were written in the current era. That said, Sparks never, ever compromises the sophistication or humor Brandwein put into his compositions. He reveres them deeply, and strives to make them live on as part of a lineage that has no use for musty audio museums, but would rather portray the music as a living, breathing, sassy, sexy thing that swaggers rather than stands still in the passage of time. Brilliant work and the best Sparks record to date.
 
Состав
Cyro Baptista: Percussion
Greg Cohen: Bass, Contrabass Guitar
Tim Sparks: Guitar
22:50
366
Нет комментариев. Ваш будет первым!