Поиск

(Latin Jazz) [CD] VA - Cristal Records Presents: Latin Jazz (2CD) - 2016, FLAC (tracks+.cue), lossless

(Latin Jazz) [CD] VA - Cristal Records Presents: Latin Jazz (2CD) - 2016, FLAC (tracks+.cue), lossless
Various - Cristal Records Presents: Latin Jazz (2CD)

Жанр: Latin Jazz | Носитель: CD
Год издания: 2016 | Издатель (лейбл): Cristal Records | Номер по каталогу: CRC107.08
Аудиокодек: FLAC (*.flac) | Тип рипа: tracks+.cue | Битрейт аудио: lossless
Продолжительность: 65:19 / 66:17 | Наличие сканов: front, back
Rip by dtromp 
 
 
CD 1
Треклист:
01. Manteca (Dizzy Gillespie & His Orchestra) (3:07)
02. The Peanut Vendor (Louis Armstrong & His Orchestra) (3:29)
03. Moonlight Fiesta (Porto Rican Chaos) (Duke Ellington & His Orchestra) (2:51)
04. Besame Mucho (Oscar Aleman Y Su Orchestra) (2:37)
05. Rumba En Swing (Chano Pozo & His Orchestra) (2:37)
06. Afro-Cuban Jazz Suite (Machito & His Orchestra with Charlie Parker) (17:16)
07. Go Bongo (Nat 'King' Cole & His Trio with Jack Costanzo) (3:07)
08. Perdido (Perez Prado & His Orchestra) (2:53)
09. La Quera Baila (Stan Kenton & His Orchestra) (5:08)
10. Carioca (Woodie Herman & His Orchestra with Tito Puente) (2:53)
11. Desafinado (Stan Getz, Joao Gilberto, A.C. Jobim) (4:13)
12. Samba Do Aviao (Bud Shank & His Orchestra) (3:01)
13. Meditation (Cal Tjader & His Orchestra) (3:32)
14. Manha De Carnaval (Stan Getz & The Gary McFarland Orchestra) (5:50)
15. Volupte (Duke Ellington & His Orchestra) (2:45)
 
 
Лог создания рипа
Exact Audio Copy V1.1 from 23. June 2015
EAC extraction logfile from 11. August 2016, 14:04
Various Artists / Latin Jazz CD1
Used drive : ATAPI iHBS112 2 Adapter: 1 ID: 1
Read mode : Secure
Utilize accurate stream : Yes
Defeat audio cache : Yes
Make use of C2 pointers : No
Read offset correction : 6
Overread into Lead-In and Lead-Out : No
Fill up missing offset samples with silence : Yes
Delete leading and trailing silent blocks : No
Null samples used in CRC calculations : Yes
Used interface : Native Win32 interface for Win NT & 2000
Gap handling : Appended to previous track
Used output format : User Defined Encoder
Selected bitrate : 1024 kBit/s
Quality : High
Add ID3 tag : No
Command line compressor : C:\Program Files\Exact Audio Copy\FLAC\FLAC.EXE
Additional command line options : -8 -V -T "ARTIST=%artist%" -T "TITLE=%title%" -T "ALBUM=%albumtitle%" -T "DATE=%year%" -T "TRACKNUMBER=%tracknr%" -T "GENRE=%genre%" -T "PERFORMER=%albuminterpret%" -T "COMPOSER=%composer%" -T "ALBUMARTIST=%albumartist%" -T "DISCNUMBER=%cdnumber%" -T "TOTALDISCS=%totalcds%" -T "TOTALTRACKS=%numtracks%" -T "COMMENT=EAC Secure Mode, Test & Copy, AccurateRip, FLAC -8" %source% -o %dest%
TOC of the extracted CD
Track | Start | Length | Start sector | End sector
---------------------------------------------------------
1 | 0:00.00 | 3:06.68 | 0 | 14017
2 | 3:06.68 | 3:29.34 | 14018 | 29726
3 | 6:36.27 | 2:50.66 | 29727 | 42542
4 | 9:27.18 | 2:36.40 | 42543 | 54282
5 | 12:03.58 | 2:37.12 | 54283 | 66069
6 | 14:40.70 | 17:15.68 | 66070 | 143762
7 | 31:56.63 | 3:06.74 | 143763 | 157786
8 | 35:03.62 | 2:52.59 | 157787 | 170745
9 | 37:56.46 | 5:08.27 | 170746 | 193872
10 | 43:04.73 | 2:53.25 | 193873 | 206872
11 | 45:58.23 | 4:13.07 | 206873 | 225854
12 | 50:11.30 | 3:01.34 | 225855 | 239463
13 | 53:12.64 | 3:31.60 | 239464 | 255348
14 | 56:44.49 | 5:49.40 | 255349 | 281563
15 | 62:34.14 | 2:44.65 | 281564 | 293928
Track 1
Filename F:\DL\Various Artists - Latin Jazz CD1 (2016) [FLAC]\01 - Dizzy Gillespie & His Orchestra - Manteca.wav
Pre-gap length 0:00:02.00
Peak level 97.7 %
Extraction speed 3.9 X
Track quality 99.9 %
Test CRC CC060F7E
Copy CRC CC060F7E
Track not present in AccurateRip database
Copy OK
Track 2
Filename F:\DL\Various Artists - Latin Jazz CD1 (2016) [FLAC]\02 - Louis Armstrong & His Orchestra - The Peanut Vendor.wav
Peak level 97.7 %
Extraction speed 4.5 X
Track quality 99.9 %
Test CRC 149C6031
Copy CRC 149C6031
Track not present in AccurateRip database
Copy OK
Track 3
Filename F:\DL\Various Artists - Latin Jazz CD1 (2016) [FLAC]\03 - Duke Ellington & His Orchestra - Moonlight Fiesta (Porto Rican Chaos).wav
Peak level 97.7 %
Extraction speed 5.7 X
Track quality 100.0 %
Test CRC 7BE08C8C
Copy CRC 7BE08C8C
Track not present in AccurateRip database
Copy OK
Track 4
Filename F:\DL\Various Artists - Latin Jazz CD1 (2016) [FLAC]\04 - Oscar Aleman Y Su Orchestra - Besame Mucho.wav
Peak level 85.6 %
Extraction speed 5.8 X
Track quality 100.0 %
Test CRC 60893F50
Copy CRC 60893F50
Track not present in AccurateRip database
Copy OK
Track 5
Filename F:\DL\Various Artists - Latin Jazz CD1 (2016) [FLAC]\05 - Chano Pozo & His Orchestra - Rumba En Swing.wav
Peak level 72.4 %
Extraction speed 6.0 X
Track quality 100.0 %
Test CRC 5C7AECD3
Copy CRC 5C7AECD3
Track not present in AccurateRip database
Copy OK
Track 6
Filename F:\DL\Various Artists - Latin Jazz CD1 (2016) [FLAC]\06 - Machito & His Orchestra with Charlie Parker - Afro-Cuban Jazz Suite.wav
Peak level 97.7 %
Extraction speed 8.1 X
Track quality 100.0 %
Test CRC 0F6A28FA
Copy CRC 0F6A28FA
Track not present in AccurateRip database
Copy OK
Track 7
Filename F:\DL\Various Artists - Latin Jazz CD1 (2016) [FLAC]\07 - Nat ''King'' Cole & His Trio with Jack Costanzo - Go Bongo.wav
Peak level 97.7 %
Extraction speed 7.7 X
Track quality 100.0 %
Test CRC 9E9AEC3F
Copy CRC 9E9AEC3F
Track not present in AccurateRip database
Copy OK
Track 8
Filename F:\DL\Various Artists - Latin Jazz CD1 (2016) [FLAC]\08 - Perez Prado & His Orchestra - Perdido.wav
Peak level 97.7 %
Extraction speed 8.0 X
Track quality 100.0 %
Test CRC AECC0ADF
Copy CRC AECC0ADF
Track not present in AccurateRip database
Copy OK
Track 9
Filename F:\DL\Various Artists - Latin Jazz CD1 (2016) [FLAC]\09 - Stan Kenton & His Orchestra - La Quera Baila.wav
Peak level 97.7 %
Extraction speed 8.8 X
Track quality 100.0 %
Test CRC 2752D203
Copy CRC 2752D203
Track not present in AccurateRip database
Copy OK
Track 10
Filename F:\DL\Various Artists - Latin Jazz CD1 (2016) [FLAC]\10 - Woodie Herman & His Orchestra with Tito Puente - Carioca.wav
Peak level 97.7 %
Extraction speed 8.3 X
Track quality 100.0 %
Test CRC 245FB936
Copy CRC 245FB936
Track not present in AccurateRip database
Copy OK
Track 11
Filename F:\DL\Various Artists - Latin Jazz CD1 (2016) [FLAC]\11 - Stan Getz, Joao Gilberto, A.C. Jobim - Desafinado.wav
Peak level 96.6 %
Extraction speed 9.2 X
Track quality 100.0 %
Test CRC 43436E35
Copy CRC 43436E35
Track not present in AccurateRip database
Copy OK
Track 12
Filename F:\DL\Various Artists - Latin Jazz CD1 (2016) [FLAC]\12 - Bud Shank & His Orchestra - Samba Do Aviao.wav
Peak level 97.7 %
Extraction speed 8.8 X
Track quality 100.0 %
Test CRC E753B9A0
Copy CRC E753B9A0
Track not present in AccurateRip database
Copy OK
Track 13
Filename F:\DL\Various Artists - Latin Jazz CD1 (2016) [FLAC]\13 - Cal Tjader & His Orchestra - Meditation.wav
Peak level 97.7 %
Extraction speed 7.6 X
Track quality 99.9 %
Test CRC 030DBFB0
Copy CRC 030DBFB0
Track not present in AccurateRip database
Copy OK
Track 14
Filename F:\DL\Various Artists - Latin Jazz CD1 (2016) [FLAC]\14 - Stan Getz & The Gary McFarland Orchestra - Manha De Carnaval.wav
Peak level 97.7 %
Extraction speed 9.9 X
Track quality 100.0 %
Test CRC 4DB7CF04
Copy CRC 4DB7CF04
Track not present in AccurateRip database
Copy OK
Track 15
Filename F:\DL\Various Artists - Latin Jazz CD1 (2016) [FLAC]\15 - Duke Ellington & His Orchestra - Volupte.wav
Peak level 97.7 %
Extraction speed 9.0 X
Track quality 100.0 %
Test CRC 509C87E3
Copy CRC 509C87E3
Track not present in AccurateRip database
Copy OK
None of the tracks are present in the AccurateRip database
No errors occurred
End of status report
---- CUETools DB Plugin V2.1.6
[CTDB TOCID: WxAlfrWPqeKvnhXDz8qaZ4Erq54-] found
Submit result: already submitted
Track | CTDB Status
1 | (1/1) Accurately ripped
2 | (1/1) Accurately ripped
3 | (1/1) Accurately ripped
4 | (1/1) Accurately ripped
5 | (1/1) Accurately ripped
6 | (1/1) Accurately ripped
7 | (1/1) Accurately ripped
8 | (1/1) Accurately ripped
9 | (1/1) Accurately ripped
10 | (1/1) Accurately ripped
11 | (1/1) Accurately ripped
12 | (1/1) Accurately ripped
13 | (1/1) Accurately ripped
14 | (1/1) Accurately ripped
15 | (1/1) Accurately ripped
==== Log checksum A8B130C00D83A588D6491BFD6D1CB988059DA536DC6CC043DD57BDAEFA8E06F7 ====
 
Содержание индексной карты (.CUE)
REM GENRE Jazz
REM DATE 2016
REM DISCID E70F4F0F
REM COMMENT ExactAudioCopy v1.1
PERFORMER "Various Artists"
TITLE "Latin Jazz CD1"
FILE "01 - Dizzy Gillespie & His Orchestra - Manteca.wav" WAVE
TRACK 01 AUDIO
TITLE "Manteca"
PERFORMER "Dizzy Gillespie & His Orchestra"
INDEX 01 00:00:00
FILE "02 - Louis Armstrong & His Orchestra - The Peanut Vendor.wav" WAVE
TRACK 02 AUDIO
TITLE "The Peanut Vendor"
PERFORMER "Louis Armstrong & His Orchestra"
INDEX 01 00:00:00
FILE "03 - Duke Ellington & His Orchestra - Moonlight Fiesta (Porto Rican Chaos).wav" WAVE
TRACK 03 AUDIO
TITLE "Moonlight Fiesta (Porto Rican Chaos)"
PERFORMER "Duke Ellington & His Orchestra"
INDEX 01 00:00:00
FILE "04 - Oscar Aleman Y Su Orchestra - Besame Mucho.wav" WAVE
TRACK 04 AUDIO
TITLE "Besame Mucho"
PERFORMER "Oscar Aleman Y Su Orchestra"
INDEX 01 00:00:00
FILE "05 - Chano Pozo & His Orchestra - Rumba En Swing.wav" WAVE
TRACK 05 AUDIO
TITLE "Rumba En Swing"
PERFORMER "Chano Pozo & His Orchestra"
INDEX 01 00:00:00
FILE "06 - Machito & His Orchestra with Charlie Parker - Afro-Cuban Jazz Suite.wav" WAVE
TRACK 06 AUDIO
TITLE "Afro-Cuban Jazz Suite"
PERFORMER "Machito & His Orchestra with Charlie Parker"
INDEX 01 00:00:00
FILE "07 - Nat ''King'' Cole & His Trio with Jack Costanzo - Go Bongo.wav" WAVE
TRACK 07 AUDIO
TITLE "Go Bongo"
PERFORMER "Nat 'King' Cole & His Trio with Jack Costanzo"
INDEX 01 00:00:00
FILE "08 - Perez Prado & His Orchestra - Perdido.wav" WAVE
TRACK 08 AUDIO
TITLE "Perdido"
PERFORMER "Perez Prado & His Orchestra"
INDEX 01 00:00:00
FILE "09 - Stan Kenton & His Orchestra - La Quera Baila.wav" WAVE
TRACK 09 AUDIO
TITLE "La Quera Baila"
PERFORMER "Stan Kenton & His Orchestra"
INDEX 01 00:00:00
FILE "10 - Woodie Herman & His Orchestra with Tito Puente - Carioca.wav" WAVE
TRACK 10 AUDIO
TITLE "Carioca"
PERFORMER "Woodie Herman & His Orchestra with Tito Puente"
INDEX 01 00:00:00
FILE "11 - Stan Getz, Joao Gilberto, A.C. Jobim - Desafinado.wav" WAVE
TRACK 11 AUDIO
TITLE "Desafinado"
PERFORMER "Stan Getz, Joao Gilberto, A.C. Jobim"
INDEX 01 00:00:00
FILE "12 - Bud Shank & His Orchestra - Samba Do Aviao.wav" WAVE
TRACK 12 AUDIO
TITLE "Samba Do Aviao"
PERFORMER "Bud Shank & His Orchestra"
INDEX 01 00:00:00
FILE "13 - Cal Tjader & His Orchestra - Meditation.wav" WAVE
TRACK 13 AUDIO
TITLE "Meditation"
PERFORMER "Cal Tjader & His Orchestra"
INDEX 01 00:00:00
FILE "14 - Stan Getz & The Gary McFarland Orchestra - Manha De Carnaval.wav" WAVE
TRACK 14 AUDIO
TITLE "Manha De Carnaval"
PERFORMER "Stan Getz & The Gary McFarland Orchestra"
INDEX 01 00:00:00
FILE "15 - Duke Ellington & His Orchestra - Volupte.wav" WAVE
TRACK 15 AUDIO
TITLE "Volupte"
PERFORMER "Duke Ellington & His Orchestra"
INDEX 01 00:00:00
 
CD 2
Треклист:
01. Baila Plena (Plena Funk) (Spirit Of Life Ensemble) (7:09)
02. Corco'Vista (Philippe Berrod) (7:51)
03. Besame Mucho (Denise King & Olivier Hutman) (5:52)
04. Cajon Negro (Paris Jazz Big Band) (4:52)
05. Rio Xanaes (Cordoba Reunion) (4:00)
06. Ilusao De Verao (Umberto Pagnini) (2:55)
07. Tango (Nicolas Genest) (6:30)
08. La Oncena (Cordoba Reunion) (4:22)
09. Tu Palabra (David Reinhardt) (4:03)
10. Andalousia (Pierre Bertrand) (6:54)
11. Afrodisia (Philippe Combelle) (5:18)
12. Tres Notas (Alfio Origlio) (2:40)
13. Tudo Bem (Catia Werneck) (3:50)
 
 
Лог создания рипа
Exact Audio Copy V1.1 from 23. June 2015
EAC extraction logfile from 11. August 2016, 14:53
Various Artists / Latin Jazz CD2
Used drive : ATAPI iHBS112 2 Adapter: 1 ID: 1
Read mode : Secure
Utilize accurate stream : Yes
Defeat audio cache : Yes
Make use of C2 pointers : No
Read offset correction : 6
Overread into Lead-In and Lead-Out : No
Fill up missing offset samples with silence : Yes
Delete leading and trailing silent blocks : No
Null samples used in CRC calculations : Yes
Used interface : Native Win32 interface for Win NT & 2000
Gap handling : Appended to previous track
Used output format : User Defined Encoder
Selected bitrate : 1024 kBit/s
Quality : High
Add ID3 tag : No
Command line compressor : C:\Program Files\Exact Audio Copy\FLAC\FLAC.EXE
Additional command line options : -8 -V -T "ARTIST=%artist%" -T "TITLE=%title%" -T "ALBUM=%albumtitle%" -T "DATE=%year%" -T "TRACKNUMBER=%tracknr%" -T "GENRE=%genre%" -T "PERFORMER=%albuminterpret%" -T "COMPOSER=%composer%" -T "ALBUMARTIST=%albumartist%" -T "DISCNUMBER=%cdnumber%" -T "TOTALDISCS=%totalcds%" -T "TOTALTRACKS=%numtracks%" -T "COMMENT=EAC Secure Mode, Test & Copy, AccurateRip, FLAC -8" %source% -o %dest%
TOC of the extracted CD
Track | Start | Length | Start sector | End sector
---------------------------------------------------------
1 | 0:00.00 | 7:08.50 | 0 | 32149
2 | 7:08.50 | 7:50.48 | 32150 | 67447
3 | 14:59.23 | 5:52.28 | 67448 | 93875
4 | 20:51.51 | 4:52.00 | 93876 | 115775
5 | 25:43.51 | 4:00.35 | 115776 | 133810
6 | 29:44.11 | 2:54.57 | 133811 | 146917
7 | 32:38.68 | 6:29.69 | 146918 | 176161
8 | 39:08.62 | 4:22.27 | 176162 | 195838
9 | 43:31.14 | 4:03.21 | 195839 | 214084
10 | 47:34.35 | 6:54.24 | 214085 | 245158
11 | 54:28.59 | 5:18.28 | 245159 | 269036
12 | 59:47.12 | 2:39.64 | 269037 | 281025
13 | 62:27.01 | 3:49.61 | 281026 | 298261
Track 1
Filename F:\DL\Various Artists - Latin Jazz CD2 (2016) [FLAC]\01 - Spirit Of Life Ensemble - Baila Plena (Plena Funk).wav
Pre-gap length 0:00:02.00
Peak level 97.7 %
Extraction speed 5.8 X
Track quality 100.0 %
Test CRC 5DA2FB1D
Copy CRC 5DA2FB1D
Track not present in AccurateRip database
Copy OK
Track 2
Filename F:\DL\Various Artists - Latin Jazz CD2 (2016) [FLAC]\02 - Philippe Berrod - Corco'Vista.wav
Peak level 97.7 %
Extraction speed 6.6 X
Track quality 100.0 %
Test CRC B02C2038
Copy CRC B02C2038
Track not present in AccurateRip database
Copy OK
Track 3
Filename F:\DL\Various Artists - Latin Jazz CD2 (2016) [FLAC]\03 - Denise King & Olivier Hutman - Besame Mucho.wav
Peak level 97.7 %
Extraction speed 7.2 X
Track quality 100.0 %
Test CRC 33264B12
Copy CRC 33264B12
Track not present in AccurateRip database
Copy OK
Track 4
Filename F:\DL\Various Artists - Latin Jazz CD2 (2016) [FLAC]\04 - Paris Jazz Big Band - Cajon Negro.wav
Peak level 83.1 %
Extraction speed 7.3 X
Track quality 100.0 %
Test CRC F970F8B6
Copy CRC F970F8B6
Track not present in AccurateRip database
Copy OK
Track 5
Filename F:\DL\Various Artists - Latin Jazz CD2 (2016) [FLAC]\05 - Cordoba Reunion - Rio Xanaes.wav
Peak level 97.7 %
Extraction speed 7.6 X
Track quality 100.0 %
Test CRC D84FB406
Copy CRC D84FB406
Track not present in AccurateRip database
Copy OK
Track 6
Filename F:\DL\Various Artists - Latin Jazz CD2 (2016) [FLAC]\06 - Umberto Pagnini - Ilusao De Verao.wav
Peak level 97.7 %
Extraction speed 7.5 X
Track quality 100.0 %
Test CRC FFE53BD0
Copy CRC FFE53BD0
Track not present in AccurateRip database
Copy OK
Track 7
Filename F:\DL\Various Artists - Latin Jazz CD2 (2016) [FLAC]\07 - Nicolas Genest - Tango.wav
Peak level 97.7 %
Extraction speed 8.5 X
Track quality 100.0 %
Test CRC 16AEDC49
Copy CRC 16AEDC49
Track not present in AccurateRip database
Copy OK
Track 8
Filename F:\DL\Various Artists - Latin Jazz CD2 (2016) [FLAC]\08 - Cordoba Reunion - La Oncena.wav
Peak level 97.7 %
Extraction speed 8.8 X
Track quality 100.0 %
Test CRC 1592A17D
Copy CRC 1592A17D
Track not present in AccurateRip database
Copy OK
Track 9
Filename F:\DL\Various Artists - Latin Jazz CD2 (2016) [FLAC]\09 - David Reinhardt - Tu Palabra.wav
Peak level 97.7 %
Extraction speed 8.9 X
Track quality 100.0 %
Test CRC 1B5C1056
Copy CRC 1B5C1056
Track not present in AccurateRip database
Copy OK
Track 10
Filename F:\DL\Various Artists - Latin Jazz CD2 (2016) [FLAC]\10 - Pierre Bertrand - Andalousia.wav
Peak level 91.6 %
Extraction speed 8.7 X
Track quality 99.9 %
Test CRC 0C11D10C
Copy CRC 0C11D10C
Track not present in AccurateRip database
Copy OK
Track 11
Filename F:\DL\Various Artists - Latin Jazz CD2 (2016) [FLAC]\11 - Philippe Combelle - Afrodisia.wav
Peak level 92.5 %
Extraction speed 8.6 X
Track quality 99.9 %
Test CRC 4DDA3DAC
Copy CRC 4DDA3DAC
Track not present in AccurateRip database
Copy OK
Track 12
Filename F:\DL\Various Artists - Latin Jazz CD2 (2016) [FLAC]\12 - Alfio Origlio - Tres Notas.wav
Peak level 97.7 %
Extraction speed 9.1 X
Track quality 100.0 %
Test CRC E9893FEE
Copy CRC E9893FEE
Track not present in AccurateRip database
Copy OK
Track 13
Filename F:\DL\Various Artists - Latin Jazz CD2 (2016) [FLAC]\13 - Catia Werneck - Tudo Bem.wav
Peak level 97.7 %
Extraction speed 7.0 X
Track quality 99.9 %
Test CRC 6E6C5862
Copy CRC 6E6C5862
Track not present in AccurateRip database
Copy OK
None of the tracks are present in the AccurateRip database
No errors occurred
End of status report
---- CUETools DB Plugin V2.1.6
[CTDB TOCID: Xub2wUTZTEH3QEU_U.EBwBBduGk-] disk not present in database
Submit result: Xub2wUTZTEH3QEU_U.EBwBBduGk- has been uploaded
==== Log checksum DAB413FD3013109AD9FF47BA91E46B12C4C985D1E73BBD45C7335BB6D557A111 ====
 
Содержание индексной карты (.CUE)
REM GENRE Jazz
REM DATE 2016
REM DISCID BA0F880D
REM COMMENT "ExactAudioCopy v1.1"
PERFORMER "Various Artists"
TITLE "Latin Jazz CD2"
FILE "01 - Spirit Of Life Ensemble - Baila Plena (Plena Funk).wav" WAVE
TRACK 01 AUDIO
TITLE "Baila Plena (Plena Funk)"
PERFORMER "Spirit Of Life Ensemble"
INDEX 01 00:00:00
FILE "02 - Philippe Berrod - Corco'Vista.wav" WAVE
TRACK 02 AUDIO
TITLE "Corco'Vista"
PERFORMER "Philippe Berrod"
INDEX 01 00:00:00
FILE "03 - Denise King & Olivier Hutman - Besame Mucho.wav" WAVE
TRACK 03 AUDIO
TITLE "Besame Mucho"
PERFORMER "Denise King & Olivier Hutman"
INDEX 01 00:00:00
FILE "04 - Paris Jazz Big Band - Cajon Negro.wav" WAVE
TRACK 04 AUDIO
TITLE "Cajon Negro"
PERFORMER "Paris Jazz Big Band"
INDEX 01 00:00:00
FILE "05 - Cordoba Reunion - Rio Xanaes.wav" WAVE
TRACK 05 AUDIO
TITLE "Rio Xanaes"
PERFORMER "Cordoba Reunion"
INDEX 01 00:00:00
FILE "06 - Umberto Pagnini - Ilusao De Verao.wav" WAVE
TRACK 06 AUDIO
TITLE "Ilusao De Verao"
PERFORMER "Umberto Pagnini"
INDEX 01 00:00:00
FILE "07 - Nicolas Genest - Tango.wav" WAVE
TRACK 07 AUDIO
TITLE "Tango"
PERFORMER "Nicolas Genest"
INDEX 01 00:00:00
FILE "08 - Cordoba Reunion - La Oncena.wav" WAVE
TRACK 08 AUDIO
TITLE "La Oncena"
PERFORMER "Cordoba Reunion"
INDEX 01 00:00:00
FILE "09 - David Reinhardt - Tu Palabra.wav" WAVE
TRACK 09 AUDIO
TITLE "Tu Palabra"
PERFORMER "David Reinhardt"
INDEX 01 00:00:00
FILE "10 - Pierre Bertrand - Andalousia.wav" WAVE
TRACK 10 AUDIO
TITLE "Andalousia"
PERFORMER "Pierre Bertrand"
INDEX 01 00:00:00
FILE "11 - Philippe Combelle - Afrodisia.wav" WAVE
TRACK 11 AUDIO
TITLE "Afrodisia"
PERFORMER "Philippe Combelle"
INDEX 01 00:00:00
FILE "12 - Alfio Origlio - Tres Notas.wav" WAVE
TRACK 12 AUDIO
TITLE "Tres Notas"
PERFORMER "Alfio Origlio"
INDEX 01 00:00:00
FILE "13 - Catia Werneck - Tudo Bem.wav" WAVE
TRACK 13 AUDIO
TITLE "Tudo Bem"
PERFORMER "Catia Werneck"
INDEX 01 00:00:00
21:55
309
Нет комментариев. Ваш будет первым!