Поиск

(Contemporary Jazz, Persian Classical) [CD] Golfam Khayam & Mona Matbou Riahi (Naqsh Duo) - Narrante - 2016 (ECM 2475), FLAC (tracks+.cue), lossless

(Contemporary Jazz, Persian Classical) [CD] Golfam Khayam & Mona Matbou Riahi (Naqsh Duo) - Narrante - 2016 (ECM 2475), FLAC (tracks+.cue), lossless
Треклист:
Golfam Khayam & Mona Matbou Riahi (Naqsh Duo) - Narrante
Жанр: Contemporary Jazz, Persian Classical
Носитель: CD
Страна-производитель диска (релиза): Германия
Год издания: 2016
Издатель (лейбл): ECM Records
Номер по каталогу: ECM 2475
Аудиокодек: FLAC (*.flac)
Тип рипа: tracks+.cue
Битрейт аудио: lossless
Продолжительность: 56:13
Источник (релизер): jlgt
Наличие сканов в содержимом раздачи: да
Треклист:
01. Testamento (Khayam-Riahi) - 5:24
02. Arioso (Khayam-Riahi) - 4:03
03. Lacrimae (Khayam-Riahi) - 8:41
04. Battaglia (Khayam-Riahi) - 9:43
05. Parlando (Khayam-Riahi) - 5:43
06. Sospiro (Khayam-Riahi) - 5:18
07. Narrante (Khayam-Riahi) - 5:40
08. Silenzio (Khayam-Riahi) - 5:57
09. Lamento-Furioso (Khayam-Riahi) - 5:44
Состав:
Golfam Khayam - guitar
Mona Matbou Riahi - clarinet
Recorded at Auditorio Stelio Molo RSI, Lugano in July 2015.
 
Лог создания рипа
Exact Audio Copy V1.1 from 23. June 2015
EAC extraction logfile from 5. August 2016, 0:04
Golfam Khayam, Mona Matbou Riahi / Narrante [ECM 2475]
Used drive : PLEXTOR DVDR PX-L890SA Adapter: 1 ID: 2
Read mode : Secure
Utilize accurate stream : Yes
Defeat audio cache : Yes
Make use of C2 pointers : No
Read offset correction : 6
Overread into Lead-In and Lead-Out : No
Fill up missing offset samples with silence : Yes
Delete leading and trailing silent blocks : No
Null samples used in CRC calculations : Yes
Used interface : Native Win32 interface for Win NT & 2000
Gap handling : Appended to previous track
Used output format : User Defined Encoder
Selected bitrate : 128 kBit/s
Quality : High
Add ID3 tag : No
Command line compressor : C:\Program Files (x86)\Exact Audio Copy\FLAC\FLAC.EXE
Additional command line options : -8 -V -T "ARTIST=%artist%" -T "TITLE=%title%" -T "ALBUM=%albumtitle%" -T "DATE=%year%" -T "TRACKNUMBER=%tracknr%" -T "TOTALTRACKS=%numtracks%" -T "GENRE=%genre%" -T "ALBUMARTIST=%albumartist%" -T "ALBUM ARTIST=%albumartist%" -T "COMMENT=EAC Secure Mode, Test & Copy, AccurateRip, FLAC -8" %source%
TOC of the extracted CD
Track | Start | Length | Start sector | End sector
---------------------------------------------------------
1 | 0:00.00 | 5:24.20 | 0 | 24319
2 | 5:24.20 | 4:03.13 | 24320 | 42557
3 | 9:27.33 | 8:41.34 | 42558 | 81666
4 | 18:08.67 | 9:43.23 | 81667 | 125414
5 | 27:52.15 | 5:42.50 | 125415 | 151114
6 | 33:34.65 | 5:18.21 | 151115 | 174985
7 | 38:53.11 | 5:40.37 | 174986 | 200522
8 | 44:33.48 | 5:56.58 | 200523 | 227280
9 | 50:30.31 | 5:43.54 | 227281 | 253059
Track 1
Filename D:\Flac Rips\01 - Testamento.wav
Pre-gap length 0:00:02.00
Peak level 78.0 %
Extraction speed 3.6 X
Track quality 100.0 %
Test CRC E25F73AC
Copy CRC E25F73AC
Accurately ripped (confidence 2) [78B6D335] (AR v2)
Copy OK
Track 2
Filename D:\Flac Rips\02 - Arioso.wav
Pre-gap length 0:00:02.00
Peak level 55.6 %
Extraction speed 4.0 X
Track quality 100.0 %
Test CRC CB123D98
Copy CRC CB123D98
Accurately ripped (confidence 2) [DEDA1F80] (AR v2)
Copy OK
Track 3
Filename D:\Flac Rips\03 - Lacrimae.wav
Pre-gap length 0:00:02.00
Peak level 96.8 %
Extraction speed 4.8 X
Track quality 100.0 %
Test CRC A4F42E7C
Copy CRC A4F42E7C
Accurately ripped (confidence 2) [886D6664] (AR v2)
Copy OK
Track 4
Filename D:\Flac Rips\04 - Battaglia.wav
Pre-gap length 0:00:02.00
Peak level 97.1 %
Extraction speed 5.0 X
Track quality 99.9 %
Test CRC AC480F4A
Copy CRC AC480F4A
Accurately ripped (confidence 2) [75C1DFB0] (AR v2)
Copy OK
Track 5
Filename D:\Flac Rips\05 - Parlando.wav
Pre-gap length 0:00:02.00
Peak level 66.9 %
Extraction speed 5.7 X
Track quality 100.0 %
Test CRC D18CC925
Copy CRC D18CC925
Accurately ripped (confidence 2) [5A45A7D0] (AR v2)
Copy OK
Track 6
Filename D:\Flac Rips\06 - Sospiro.wav
Pre-gap length 0:00:02.00
Peak level 85.4 %
Extraction speed 6.0 X
Track quality 100.0 %
Test CRC CB9D6172
Copy CRC CB9D6172
Accurately ripped (confidence 2) [DC36C19A] (AR v2)
Copy OK
Track 7
Filename D:\Flac Rips\07 - Narrante.wav
Pre-gap length 0:00:02.00
Peak level 83.9 %
Extraction speed 6.3 X
Track quality 100.0 %
Test CRC DF4114CB
Copy CRC DF4114CB
Accurately ripped (confidence 2) [DFBC609E] (AR v2)
Copy OK
Track 8
Filename D:\Flac Rips\08 - Silenzio.wav
Pre-gap length 0:00:02.00
Peak level 60.1 %
Extraction speed 6.6 X
Track quality 100.0 %
Test CRC C48FE603
Copy CRC C48FE603
Accurately ripped (confidence 2) [89155CE7] (AR v2)
Copy OK
Track 9
Filename D:\Flac Rips\09 - Lamento-Furioso.wav
Pre-gap length 0:00:02.00
Peak level 96.6 %
Extraction speed 6.9 X
Track quality 100.0 %
Test CRC 0F84D349
Copy CRC 0F84D349
Accurately ripped (confidence 2) [D3384E7D] (AR v2)
Copy OK
All tracks accurately ripped
No errors occurred
End of status report
---- CUETools DB Plugin V2.1.6
[CTDB TOCID: 6vT3U3n1U5la1whT5ccMsZDBMEw-] found
Submit result: already submitted
Track | CTDB Status
1 | (5/5) Accurately ripped
2 | (5/5) Accurately ripped
3 | (5/5) Accurately ripped
4 | (5/5) Accurately ripped
5 | (5/5) Accurately ripped
6 | (5/5) Accurately ripped
7 | (5/5) Accurately ripped
8 | (5/5) Accurately ripped
9 | (5/5) Accurately ripped
==== Log checksum A54588ADE977211753C7B00835ADCE46A9971ACA2E4CCAE1D035F30260551CEC ====
 
Содержание индексной карты (.CUE)
REM GENRE Jazz
REM DATE 2016
REM DISCID 6F0D2E09
REM COMMENT "ExactAudioCopy v1.1"
PERFORMER "Golfam Khayam & Mona Matbou Riahi"
TITLE "Narrante"
FILE "01 - Testamento.wav" WAVE
TRACK 01 AUDIO
TITLE "Testamento"
PERFORMER "Golfam Khayam & Mona Matbou Riahi"
INDEX 01 00:00:00
TRACK 02 AUDIO
TITLE "Arioso"
PERFORMER "Golfam Khayam & Mona Matbou Riahi"
INDEX 00 05:22:20
FILE "02 - Arioso.wav" WAVE
INDEX 01 00:00:00
TRACK 03 AUDIO
TITLE "Lacrimae"
PERFORMER "Golfam Khayam & Mona Matbou Riahi"
INDEX 00 04:01:13
FILE "03 - Lacrimae.wav" WAVE
INDEX 01 00:00:00
TRACK 04 AUDIO
TITLE "Battaglia"
PERFORMER "Golfam Khayam & Mona Matbou Riahi"
INDEX 00 08:39:34
FILE "04 - Battaglia.wav" WAVE
INDEX 01 00:00:00
TRACK 05 AUDIO
TITLE "Parlando"
PERFORMER "Golfam Khayam & Mona Matbou Riahi"
INDEX 00 09:41:23
FILE "05 - Parlando.wav" WAVE
INDEX 01 00:00:00
TRACK 06 AUDIO
TITLE "Sospiro"
PERFORMER "Golfam Khayam & Mona Matbou Riahi"
INDEX 00 05:40:50
FILE "06 - Sospiro.wav" WAVE
INDEX 01 00:00:00
TRACK 07 AUDIO
TITLE "Narrante"
PERFORMER "Golfam Khayam & Mona Matbou Riahi"
INDEX 00 05:16:21
FILE "07 - Narrante.wav" WAVE
INDEX 01 00:00:00
TRACK 08 AUDIO
TITLE "Silenzio"
PERFORMER "Golfam Khayam & Mona Matbou Riahi"
INDEX 00 05:38:37
FILE "08 - Silenzio.wav" WAVE
INDEX 01 00:00:00
TRACK 09 AUDIO
TITLE "Lamento-Furioso"
PERFORMER "Golfam Khayam & Mona Matbou Riahi"
INDEX 00 05:54:58
FILE "09 - Lamento-Furioso.wav" WAVE
INDEX 01 00:00:00
 
Отчет CUETools
[CUETools log; Date: 15.08.2016 14:14:49; Version: 2.1.5]
[CTDB TOCID: 6vT3U3n1U5la1whT5ccMsZDBMEw-] found.
Track | CTDB Status
1 | (6/6) Accurately ripped
2 | (6/6) Accurately ripped
3 | (6/6) Accurately ripped
4 | (6/6) Accurately ripped
5 | (6/6) Accurately ripped
6 | (6/6) Accurately ripped
7 | (6/6) Accurately ripped
8 | (6/6) Accurately ripped
9 | (6/6) Accurately ripped
[AccurateRip ID: 00138b9d-009012ab-6f0d2e09] found.
Track [ CRC | V2 ] Status
01 [1d89d4f1|78b6d335] (0+2/2) Accurately ripped
02 [4d4abb4e|deda1f80] (0+2/2) Accurately ripped
03 [e578b7c5|886d6664] (0+2/2) Accurately ripped
04 [b9fca1bc|75c1dfb0] (0+2/2) Accurately ripped
05 [fad7f326|5a45a7d0] (0+2/2) Accurately ripped
06 [1f72800d|dc36c19a] (0+2/2) Accurately ripped
07 [8bd12c99|dfbc609e] (0+2/2) Accurately ripped
08 [6c664a43|89155ce7] (0+2/2) Accurately ripped
09 [b3a457e7|d3384e7d] (0+2/2) Accurately ripped
Track Peak [ CRC32 ] [W/O NULL] [ LOG ]
-- 97,1 [40413E10] [11E33663]
01 78,0 [E25F73AC] [00B43AFA] CRC32
02 55,6 [CB123D98] [EA922035] CRC32
03 96,8 [A4F42E7C] [BE83E8F2] CRC32
04 97,1 [AC480F4A] [41465862] CRC32
05 66,9 [D18CC925] [9909D7D6] CRC32
06 85,4 [CB9D6172] [6B5C6B6F] CRC32
07 83,9 [DF4114CB] [F5FEF445] CRC32
08 60,1 [C48FE603] [C7EDF9D0] CRC32
09 96,6 [0F84D349] [11640BB0] CRC32
 
Review by Mark Sullivan
Iranian guitarist Golfam Khayam and clarinetist Mona Matbou Riahi—also known as the Naqsh Duo—bring a whole host of additional influences to bear on the Persian musical traditions they grew up with in the collaborative music on Narrante. Khayam explains that "the freshness and purpose of improvisation come mostly from the Persian side, while the careful structure and careful crafting come from Western contemporary music." It's a personal synthesis, with composition and improvisation intertwined.
Opener "Testamento" (Testament) does sound like Persian music, beginning with two clarinets played simultaneously, then guitar and clarinet weaving modal lines together. "Lacrimae" (Tears) shows the influence of the singing improvisational traditions from Kurdistan, while "Narrante" (Narrating) comes from the Guati, a healing ceremony in Baluchistan (with its repetitive rhythmic figures and pentatonic scales). The title tune builds up impressive energy through the combination of pattern repetition from the guitar and register changes in the clarinet part.
"Battaglia" (Battle) has clearer contemporary influences, beginning with percussive guitar playing using the strings and the body. The piece gets gentler as it goes (aftermath of the battle?), with another slight eruption at the end. "Parlando" (Speaking) makes good on its title. Matbou Riahi's clarinet opens with a singing line, and as Khayam's guitar joins in the pair have an intimate conversation, the parts sometimes closely paralleling each other, sometimes joining together.
Narrante is the first ECM production to be issued simultaneously in European and Iranian editions, reflecting its dual influences. In its own way it extends the Persian musical tradition, while simultaneously bringing it into a Western setting.
21:56
294
Нет комментариев. Ваш будет первым!