Поиск

(Latin Jazz, Brazilian, MPB) [CD] Gal Costa - Gal Costa (1969) - 2014, FLAC (tracks+.cue), lossless

(Latin Jazz, Brazilian, MPB) [CD] Gal Costa - Gal Costa (1969) - 2014, FLAC (tracks+.cue), lossless
Треклист:
Gal Costa - Gal Costa (1969) Жанр: Latin Jazz, Brazilian, MPB
Носитель: CD
Год издания: 2014
Издатель (лейбл): Real Gone Music/Dusty Groove
Номер по каталогу: RGM-0257
Аудиокодек: FLAC (*.flac)
Тип рипа: tracks+.cue
Битрейт аудио: lossless
Продолжительность: 39:32
Источник (релизер): ruskaval
Наличие сканов в содержимом раздачи: да
Треклист:
01. Não Identificado (3:19)
02. Sebastiana (2:25)
03. Lost In The Paradise (2:52)
04. Namorinho De Portão (2:34)
05. Saudosismo (3:10)
06. Se Voce Pensa (3:14)
07. Vou Recomeçar (3:25)
08. Divino, Maravilhoso (4:20)
09. Que Pena (Ele Já Não Gosta Mais De Mim) (3:35)
10. Baby (3:33)
11. A Coisa Mais Linda Que Existe (4:00)
12. Deus É O Amor (3:05)
 
 
Лог создания рипа
Exact Audio Copy V1.0 beta 3 from 29. August 2011
EAC extraction logfile from 27. September 2015, 20:31
Gal Costa / Gal Costa
Used drive : SONY DVD RW DRU-810A Adapter: 1 ID: 0
Read mode : Secure
Utilize accurate stream : Yes
Defeat audio cache : Yes
Make use of C2 pointers : No
Read offset correction : 618
Overread into Lead-In and Lead-Out : No
Fill up missing offset samples with silence : Yes
Delete leading and trailing silent blocks : No
Null samples used in CRC calculations : Yes
Used interface : Native Win32 interface for Win NT & 2000
Gap handling : Appended to previous track
Used output format : User Defined Encoder
Selected bitrate : 128 kBit/s
Quality : High
Add ID3 tag : No
Command line compressor : C:\Program Files (x86)\Exact Audio Copy\Flac\flac.exe
Additional command line options : -8 -V -T "ARTIST=%artist%" -T "TITLE=%title%" -T "ALBUM=%albumtitle%" -T "DATE=%year%" -T "TRACKNUMBER=%tracknr%" -T "TOTALTRACKS=%numtracks%" -T "GENRE=%genre%" -T "ALBUMARTIST=%albumartist%" -T "ALBUM ARTIST=%albumartist%" -T "COMMENT=EAC Secure Mode, Test & Copy, AccurateRip, FLAC -8" %source%
TOC of the extracted CD
Track | Start | Length | Start sector | End sector
---------------------------------------------------------
1 | 0:00.33 | 3:19.27 | 33 | 14984
2 | 3:19.60 | 2:24.50 | 14985 | 25834
3 | 5:44.35 | 2:51.73 | 25835 | 38732
4 | 8:36.33 | 2:33.72 | 38733 | 50279
5 | 11:10.30 | 3:10.10 | 50280 | 64539
6 | 14:20.40 | 3:14.35 | 64540 | 79124
7 | 17:35.00 | 3:24.45 | 79125 | 94469
8 | 20:59.45 | 4:20.10 | 94470 | 113979
9 | 25:19.55 | 3:35.08 | 113980 | 130112
10 | 28:54.63 | 3:33.10 | 130113 | 146097
11 | 32:27.73 | 4:00.00 | 146098 | 164097
12 | 36:27.73 | 3:04.45 | 164098 | 177942
Track 1
Filename F:\New Rips\Gal Costa - Gal Costa (1969) [FLAC]\01 - Nao Identificado.wav
Pre-gap length 0:00:02.33
Peak level 85.0 %
Extraction speed 4.8 X
Track quality 100.0 %
Test CRC EB214BAE
Copy CRC EB214BAE
Accurately ripped (confidence 5) [CCAA4AC2] (AR v2)
Copy OK
Track 2
Filename F:\New Rips\Gal Costa - Gal Costa (1969) [FLAC]\02 - Sebastiana.wav
Peak level 92.3 %
Extraction speed 4.8 X
Track quality 100.0 %
Test CRC BF3D72F5
Copy CRC BF3D72F5
Accurately ripped (confidence 5) [59064D25] (AR v2)
Copy OK
Track 3
Filename F:\New Rips\Gal Costa - Gal Costa (1969) [FLAC]\03 - Lost In The Paradise.wav
Pre-gap length 0:00:00.02
Peak level 84.1 %
Extraction speed 4.2 X
Track quality 99.9 %
Test CRC 8A0B6294
Copy CRC 8A0B6294
Accurately ripped (confidence 5) [C5682AEE] (AR v2)
Copy OK
Track 4
Filename F:\New Rips\Gal Costa - Gal Costa (1969) [FLAC]\04 - Namorinho De Portao.wav
Pre-gap length 0:00:00.05
Peak level 98.9 %
Extraction speed 5.3 X
Track quality 100.0 %
Test CRC 115B2F40
Copy CRC 115B2F40
Accurately ripped (confidence 5) [6F989DEB] (AR v2)
Copy OK
Track 5
Filename F:\New Rips\Gal Costa - Gal Costa (1969) [FLAC]\05 - Saudosismo.wav
Peak level 96.5 %
Extraction speed 5.8 X
Track quality 100.0 %
Test CRC 036E7802
Copy CRC 036E7802
Accurately ripped (confidence 5) [9911B772] (AR v2)
Copy OK
Track 6
Filename F:\New Rips\Gal Costa - Gal Costa (1969) [FLAC]\06 - Se Voce Pensa.wav
Peak level 96.3 %
Extraction speed 6.1 X
Track quality 100.0 %
Test CRC 67217B3A
Copy CRC 67217B3A
Accurately ripped (confidence 5) [A2F442B8] (AR v2)
Copy OK
Track 7
Filename F:\New Rips\Gal Costa - Gal Costa (1969) [FLAC]\07 - Vou Recomecar.wav
Peak level 77.7 %
Extraction speed 6.4 X
Track quality 100.0 %
Test CRC 282BD6F8
Copy CRC 282BD6F8
Accurately ripped (confidence 5) [1D6EE707] (AR v2)
Copy OK
Track 8
Filename F:\New Rips\Gal Costa - Gal Costa (1969) [FLAC]\08 - Divino Maravilhoso.wav
Peak level 77.1 %
Extraction speed 6.9 X
Track quality 100.0 %
Test CRC 6FF88D3D
Copy CRC 6FF88D3D
Accurately ripped (confidence 5) [F8706955] (AR v2)
Copy OK
Track 9
Filename F:\New Rips\Gal Costa - Gal Costa (1969) [FLAC]\09 - Que Pena.wav
Peak level 86.5 %
Extraction speed 5.9 X
Track quality 99.9 %
Test CRC 03B61D7F
Copy CRC 03B61D7F
Accurately ripped (confidence 5) [1BC16EB2] (AR v2)
Copy OK
Track 10
Filename F:\New Rips\Gal Costa - Gal Costa (1969) [FLAC]\10 - Baby.wav
Pre-gap length 0:00:00.13
Peak level 80.8 %
Extraction speed 6.1 X
Track quality 99.9 %
Test CRC 353A06F5
Copy CRC 353A06F5
Accurately ripped (confidence 5) [5EE4F395] (AR v2)
Copy OK
Track 11
Filename F:\New Rips\Gal Costa - Gal Costa (1969) [FLAC]\11 - A Coisa Mais Linda Que Existe.wav
Pre-gap length 0:00:00.15
Peak level 94.5 %
Extraction speed 6.5 X
Track quality 99.9 %
Test CRC 6F711D8F
Copy CRC 6F711D8F
Accurately ripped (confidence 5) [E559CD6B] (AR v2)
Copy OK
Track 12
Filename F:\New Rips\Gal Costa - Gal Costa (1969) [FLAC]\12 - Deus E O Amor.wav
Peak level 82.7 %
Extraction speed 6.1 X
Track quality 99.9 %
Test CRC FB2F570A
Copy CRC FB2F570A
Accurately ripped (confidence 5) [5ED038C1] (AR v2)
Copy OK
All tracks accurately ripped
No errors occurred
End of status report
==== Log checksum E11D483AECB410292BE2362A9AE6C01797E9C7B218E89B8A463480F4EA65E356 ====
 
Содержание индексной карты (.CUE)
REM GENRE World
REM DATE 1969
REM DISCID 9B09440C
REM COMMENT "ExactAudioCopy v1.0b3"
PERFORMER "Gal Costa"
TITLE "Gal Costa"
FILE "01 - Nao Identificado.flac" WAVE
TRACK 01 AUDIO
TITLE "Não Identificado"
PERFORMER "Gal Costa"
PREGAP 00:00:33
INDEX 01 00:00:00
FILE "02 - Sebastiana.flac" WAVE
TRACK 02 AUDIO
TITLE "Sebastiana"
PERFORMER "Gal Costa"
FLAGS DCP
INDEX 01 00:00:00
TRACK 03 AUDIO
TITLE "Lost In The Paradise"
PERFORMER "Gal Costa"
FLAGS DCP
INDEX 00 02:24:48
FILE "03 - Lost In The Paradise.flac" WAVE
INDEX 01 00:00:00
TRACK 04 AUDIO
TITLE "Namorinho De Portão"
PERFORMER "Gal Costa"
FLAGS DCP
INDEX 00 02:51:68
FILE "04 - Namorinho De Portao.flac" WAVE
INDEX 01 00:00:00
FILE "05 - Saudosismo.flac" WAVE
TRACK 05 AUDIO
TITLE "Saudosismo"
PERFORMER "Gal Costa"
FLAGS DCP
INDEX 01 00:00:00
FILE "06 - Se Voce Pensa.flac" WAVE
TRACK 06 AUDIO
TITLE "Se Voce Pensa"
PERFORMER "Gal Costa"
FLAGS DCP
INDEX 01 00:00:00
FILE "07 - Vou Recomecar.flac" WAVE
TRACK 07 AUDIO
TITLE "Vou Recomecar"
PERFORMER "Gal Costa"
FLAGS DCP
INDEX 01 00:00:00
FILE "08 - Divino Maravilhoso.flac" WAVE
TRACK 08 AUDIO
TITLE "Divino Maravilhoso"
PERFORMER "Gal Costa"
FLAGS DCP
INDEX 01 00:00:00
FILE "09 - Que Pena.flac" WAVE
TRACK 09 AUDIO
TITLE "Que Pena (Ele Já Não Gosta Mais De Mim)"
PERFORMER "Gal Costa"
FLAGS DCP
INDEX 01 00:00:00
TRACK 10 AUDIO
TITLE "Baby"
PERFORMER "Gal Costa"
FLAGS DCP
INDEX 00 03:34:70
FILE "10 - Baby.flac" WAVE
INDEX 01 00:00:00
TRACK 11 AUDIO
TITLE "A Coisa Mais Linda Que Existe"
PERFORMER "Gal Costa"
FLAGS DCP
INDEX 00 03:32:70
FILE "11 - A Coisa Mais Linda Que Existe.flac" WAVE
INDEX 01 00:00:00
FILE "12 - Deus E O Amor.flac" WAVE
TRACK 12 AUDIO
TITLE "Deus É O Amor"
PERFORMER "Gal Costa"
FLAGS DCP
INDEX 01 00:00:00
 
Об альбоме (сборнике)
One of the most mindblowing albums ever recorded – anywhere, anytime! This 1969 set stands as one of the greatest records ever cut by Gal Costa – done at the height of the Tropicalia movement, and featuring a sublime mix of styles that really gets the spirit of the movement right. Arrangements are by the legendary Rogerio Duprat – who effortlessly shifts the backings between stark electronics, sweet bossa, gliding strings, jazzy piano, and baroque orchestrations that dance around with a surprising amount of grooves! Tunes include some classics by Caetano Veloso, Jorge Ben, and Gilberto Gil – served up in amazing new versions by Gal and Duprat! Titles include "Nao Identificado", "Lost in the Paradise", "Que Pena", "Sebastiana", "Namorinho De Portao", "Divino Maravilhoso", and "Deus E O Amor".
20:52
318
Нет комментариев. Ваш будет первым!