Поиск

(Bossa Nova, Latin Jazz) [CD] Paul Winter & Carlos Lyra - The Sound of Ipanema - 1965 (2005 Japan Edition), FLAC (tracks+.cue), lossless

(Bossa Nova, Latin Jazz) [CD] Paul Winter & Carlos Lyra - The Sound of Ipanema - 1965 (2005 Japan Edition), FLAC (tracks+.cue), lossless
Треклист:
Paul Winter & Carlos Lyra - The Sound of Ipanema
Жанр: Bossa Nova, Latin Jazz
Носитель: CD
Страна-производитель диска (релиза): Япония
Год издания: 1965 (2005)
Издатель (лейбл): Sony Music Japan
Номер по каталогу: SICP 871
Страна исполнителя (группы): Бразилия
Аудиокодек: FLAC (*.flac)
Тип рипа: tracks+.cue
Битрейт аудио: lossless
Продолжительность: 33:55
Источник (релизер): measet (what)
Наличие сканов в содержимом раздачи: нет
Треклист:
01. Voce e Eu (You and I) - 2:48
02. Se e Tarde Me Perdoa (Forgive Me If I'm Late) - 2:59
03. Maria Ninguem (Maria Nobody) - 3:02
04. De Quem Ama (For Whom Love) - 3:04
05. Quem Quizer Encontrar O Amar (Whoever Wants to Find Love) - 2:59
06. Aruanda - 2:51
07. Coisa Mais Linda (The Most Beautiful Thing) - 3:09
08. O Morro (The Hill) - 2:30
09. Mas Tambem Quem Mandou (What Made Me Do It) - 3:41
10. Tem Do De Mim (Don't Make Me Love) - 2:57
11. Lobo Bobo (The Big Band Wolf) - 3:55
Состав:
Paul Winter - alto saxophone
Carlos Lyra - guitar, vocals
Sergio Mendes - piano
Sebastiao Neto - bass
Milton Banana - drums
Recorded in Rio de Janiero.
 
Лог создания рипа
Exact Audio Copy V1.1 from 23. June 2015
EAC extraction logfile from 26. February 2016, 20:03
Paul Winter With Carlos Lyra / The Sound Of Ipanema
Used drive : HL-DT-STDVD+-RW GS30N Adapter: 1 ID: 0
Read mode : Secure
Utilize accurate stream : Yes
Defeat audio cache : Yes
Make use of C2 pointers : No
Read offset correction : 667
Overread into Lead-In and Lead-Out : No
Fill up missing offset samples with silence : Yes
Delete leading and trailing silent blocks : No
Null samples used in CRC calculations : Yes
Used interface : Native Win32 interface for Win NT & 2000
Gap handling : Appended to previous track
Used output format : User Defined Encoder
Selected bitrate : 1024 kBit/s
Quality : High
Add ID3 tag : No
Command line compressor : C:\Program Files (x86)\Exact Audio Copy\FLAC\FLAC.EXE
Additional command line options : -6 -V -T "ARTIST=%artist%" -T "TITLE=%title%" -T "ALBUM=%albumtitle%" -T "DATE=%year%" -T "TRACKNUMBER=%tracknr%" -T "GENRE=%genre%" -T "COMMENT=%comment%" -T "BAND=%albuminterpret%" -T "ALBUMARTIST=%albuminterpret%" -T "COMPOSER=%composer%" %haslyrics%--tag-from-file=LYRICS="%lyricsfile%"%haslyrics% -T "DISCNUMBER=%cdnumber%" -T "TOTALDISCS=%totalcds%" -T "TOTALTRACKS=%numtracks%" %hascover%--picture="%coverfile%"%hascover% %source% -o %dest%
TOC of the extracted CD
Track | Start | Length | Start sector | End sector
---------------------------------------------------------
1 | 0:00.00 | 2:48.30 | 0 | 12629
2 | 2:48.30 | 2:58.60 | 12630 | 26039
3 | 5:47.15 | 3:01.62 | 26040 | 39676
4 | 8:49.02 | 3:03.73 | 39677 | 53474
5 | 11:53.00 | 2:59.10 | 53475 | 66909
6 | 14:52.10 | 2:50.67 | 66910 | 79726
7 | 17:43.02 | 3:08.63 | 79727 | 93889
8 | 20:51.65 | 2:30.10 | 93890 | 105149
9 | 23:22.00 | 3:40.70 | 105150 | 121719
10 | 27:02.70 | 2:57.32 | 121720 | 135026
11 | 30:00.27 | 3:54.50 | 135027 | 152626
Track 1
Filename D:\music\Paul Winter With Carlos Lyra - The Sound Of Ipanema\01. Paul Winter With Carlos Lyra - Voce e Eu (You and I).wav
Pre-gap length 0:00:02.00
Peak level 93.8 %
Extraction speed 2.7 X
Track quality 100.0 %
Test CRC EE0F87CA
Copy CRC EE0F87CA
Cannot be verified as accurate (confidence 3) [F31395F9], AccurateRip returned [B8213E25] (AR v2)
Copy OK
Track 2
Filename D:\music\Paul Winter With Carlos Lyra - The Sound Of Ipanema\02. Paul Winter With Carlos Lyra - Se e Tarde Me Perdoa (Forgive Me If I'm Late).wav
Peak level 94.4 %
Extraction speed 2.8 X
Track quality 100.0 %
Test CRC 56939F28
Copy CRC 56939F28
Cannot be verified as accurate (confidence 3) [9CDF69C2], AccurateRip returned [D12B27AC] (AR v2)
Copy OK
Track 3
Filename D:\music\Paul Winter With Carlos Lyra - The Sound Of Ipanema\03. Paul Winter With Carlos Lyra - Maria Ninguem (Maria Nobody).wav
Peak level 93.3 %
Extraction speed 3.0 X
Track quality 100.0 %
Test CRC CAA8D6EE
Copy CRC CAA8D6EE
Cannot be verified as accurate (confidence 3) [70A41153], AccurateRip returned [CB457804] (AR v2)
Copy OK
Track 4
Filename D:\music\Paul Winter With Carlos Lyra - The Sound Of Ipanema\04. Paul Winter With Carlos Lyra - De Quem Ama (For Whom Love).wav
Peak level 93.3 %
Extraction speed 3.3 X
Track quality 100.0 %
Test CRC 8E085680
Copy CRC 8E085680
Cannot be verified as accurate (confidence 3) [303FC847], AccurateRip returned [41E3AEFB] (AR v2)
Copy OK
Track 5
Filename D:\music\Paul Winter With Carlos Lyra - The Sound Of Ipanema\05. Paul Winter With Carlos Lyra - Quem Quizer Encontrar O Amar (Whoever Wants to Find Love).wav
Peak level 95.5 %
Extraction speed 3.3 X
Track quality 100.0 %
Test CRC 176083A9
Copy CRC 176083A9
Cannot be verified as accurate (confidence 3) [EAB18246], AccurateRip returned [3ED6DAC4] (AR v2)
Copy OK
Track 6
Filename D:\music\Paul Winter With Carlos Lyra - The Sound Of Ipanema\06. Paul Winter With Carlos Lyra - Aruanda.wav
Peak level 94.3 %
Extraction speed 3.4 X
Track quality 100.0 %
Test CRC 1C899EBB
Copy CRC 1C899EBB
Cannot be verified as accurate (confidence 3) [A7CED023], AccurateRip returned [FBE1348F] (AR v2)
Copy OK
Track 7
Filename D:\music\Paul Winter With Carlos Lyra - The Sound Of Ipanema\07. Paul Winter With Carlos Lyra - Coisa Mais Linda (The Most Beautiful Thing).wav
Peak level 93.2 %
Extraction speed 3.6 X
Track quality 100.0 %
Test CRC 437E87F4
Copy CRC 437E87F4
Cannot be verified as accurate (confidence 3) [C6A74DBB], AccurateRip returned [C695C0FB] (AR v2)
Copy OK
Track 8
Filename D:\music\Paul Winter With Carlos Lyra - The Sound Of Ipanema\08. Paul Winter With Carlos Lyra - O Morro (The Hill).wav
Peak level 94.2 %
Extraction speed 3.7 X
Track quality 100.0 %
Test CRC E485FEE5
Copy CRC E485FEE5
Cannot be verified as accurate (confidence 3) [782FB146], AccurateRip returned [0118DF04] (AR v2)
Copy OK
Track 9
Filename D:\music\Paul Winter With Carlos Lyra - The Sound Of Ipanema\09. Paul Winter With Carlos Lyra - Mas Tambem Quem Mandou (What Made Me Do It).wav
Peak level 94.0 %
Extraction speed 4.1 X
Track quality 100.0 %
Test CRC 2E71A1C6
Copy CRC 2E71A1C6
Cannot be verified as accurate (confidence 3) [4DB1A03D], AccurateRip returned [0825BD2A] (AR v2)
Copy OK
Track 10
Filename D:\music\Paul Winter With Carlos Lyra - The Sound Of Ipanema\10. Paul Winter With Carlos Lyra - Tem Do De Mim (Don't Make Me Love).wav
Peak level 94.1 %
Extraction speed 4.1 X
Track quality 100.0 %
Test CRC D4673C76
Copy CRC D4673C76
Cannot be verified as accurate (confidence 3) [730FBC56], AccurateRip returned [878813C6] (AR v2)
Copy OK
Track 11
Filename D:\music\Paul Winter With Carlos Lyra - The Sound Of Ipanema\11. Paul Winter With Carlos Lyra - Lobo Bobo (The Big Band Wolf).wav
Peak level 94.2 %
Extraction speed 4.4 X
Track quality 100.0 %
Test CRC BD127411
Copy CRC BD127411
Cannot be verified as accurate (confidence 3) [054173F8], AccurateRip returned [C46B3B70] (AR v2)
Copy OK
No tracks could be verified as accurate
You may have a different pressing from the one(s) in the database
No errors occurred
End of status report
---- CUETools DB Plugin V2.1.6
[CTDB TOCID: Jkzjuc1cHcZCpjzLfAh76W52ZwQ-] found
Submit result: Jkzjuc1cHcZCpjzLfAh76W52ZwQ- has been confirmed
Track | CTDB Status
1 | (3/4) Accurately ripped
2 | (3/4) Accurately ripped
3 | (3/4) Accurately ripped
4 | (3/4) Accurately ripped
5 | (3/4) Accurately ripped
6 | (3/4) Accurately ripped
7 | (3/4) Accurately ripped
8 | (3/4) Accurately ripped
9 | (3/4) Accurately ripped
10 | (3/4) Accurately ripped
11 | (3/4) Accurately ripped
==== Log checksum C2B571FB1448C10CB81218D7C1B8C448551E002D1F560D8EDBE6E68DF5D1B1D3 ====
 
Содержание индексной карты (.CUE)
REM GENRE Jazz
REM DATE 1965
REM DISCID 7D07F30B
REM COMMENT "ExactAudioCopy v1.1"
PERFORMER "Paul Winter & Carlos Lyra"
TITLE "The Sound of Ipanema"
FILE "01 - Voce e Eu (You and I).wav" WAVE
TRACK 01 AUDIO
TITLE "Voce e Eu (You and I)"
PERFORMER "Paul Winter & Carlos Lyra"
INDEX 01 00:00:00
FILE "02 - Se e Tarde Me Perdoa (Forgive Me If I'm Late).wav" WAVE
TRACK 02 AUDIO
TITLE "Se e Tarde Me Perdoa (Forgive Me If I'm Late)"
PERFORMER "Paul Winter & Carlos Lyra"
INDEX 01 00:00:00
FILE "03 - Maria Ninguem (Maria Nobody).wav" WAVE
TRACK 03 AUDIO
TITLE "Maria Ninguem (Maria Nobody)"
PERFORMER "Paul Winter & Carlos Lyra"
INDEX 01 00:00:00
FILE "04 - De Quem Ama (For Whom Love).wav" WAVE
TRACK 04 AUDIO
TITLE "De Quem Ama (For Whom Love)"
PERFORMER "Paul Winter & Carlos Lyra"
INDEX 01 00:00:00
FILE "05 - Quem Quizer Encontrar O Amar (Whoever Wants to Find Love).wav" WAVE
TRACK 05 AUDIO
TITLE "Quem Quizer Encontrar O Amar (Whoever Wants to Find Love)"
PERFORMER "Paul Winter & Carlos Lyra"
INDEX 01 00:00:00
FILE "06 - Aruanda.wav" WAVE
TRACK 06 AUDIO
TITLE "Aruanda"
PERFORMER "Paul Winter & Carlos Lyra"
INDEX 01 00:00:00
FILE "07 - Coisa Mais Linda (The Most Beautiful Thing).wav" WAVE
TRACK 07 AUDIO
TITLE "Coisa Mais Linda (The Most Beautiful Thing)"
PERFORMER "Paul Winter & Carlos Lyra"
INDEX 01 00:00:00
FILE "08 - O Morro (The Hill).wav" WAVE
TRACK 08 AUDIO
TITLE "O Morro (The Hill)"
PERFORMER "Paul Winter & Carlos Lyra"
INDEX 01 00:00:00
FILE "09 - Mas Tambem Quem Mandou (What Made Me Do It).wav" WAVE
TRACK 09 AUDIO
TITLE "Mas Tambem Quem Mandou (What Made Me Do It)"
PERFORMER "Paul Winter & Carlos Lyra"
INDEX 01 00:00:00
FILE "10 - Tem Do De Mim (Don't Make Me Love).wav" WAVE
TRACK 10 AUDIO
TITLE "Tem Do De Mim (Don't Make Me Love)"
PERFORMER "Paul Winter & Carlos Lyra"
INDEX 01 00:00:00
FILE "11 - Lobo Bobo (The Big Band Wolf).wav" WAVE
TRACK 11 AUDIO
TITLE "Lobo Bobo (The Big Band Wolf)"
PERFORMER "Paul Winter & Carlos Lyra"
INDEX 01 00:00:00
 
Отчет CUETools
[CUETools log; Date: 27.02.2016 17:47:26; Version: 2.1.5]
[CTDB TOCID: Jkzjuc1cHcZCpjzLfAh76W52ZwQ-] found.
Track | CTDB Status
1 | (4/5) Accurately ripped
2 | (4/5) Accurately ripped
3 | (4/5) Accurately ripped
4 | (4/5) Accurately ripped
5 | (4/5) Accurately ripped
6 | (4/5) Accurately ripped
7 | (4/5) Accurately ripped
8 | (4/5) Accurately ripped
9 | (4/5) Accurately ripped
10 | (4/5) Accurately ripped
11 | (4/5) Accurately ripped
[AccurateRip ID: 000d8859-0075ce38-7d07f30b] found.
Track [ CRC | V2 ] Status
01 [459947b9|f31395f9] (0+0/5) No match
02 [29ec0bc8|9cdf69c2] (0+0/5) No match
03 [a79b8c70|70a41153] (0+0/5) No match
04 [5e1183cc|303fc847] (0+0/5) No match
05 [57d71b80|eab18246] (0+0/5) No match
06 [4b09cc2e|a7ced023] (0+0/5) No match
07 [a726832d|c6a74dbb] (0+0/5) No match
08 [a7747d8a|782fb146] (0+0/5) No match
09 [9d2a4e82|4db1a03d] (0+0/5) No match
10 [c55f305e|730fbc56] (0+0/5) No match
11 [26938854|054173f8] (0+0/5) No match
Offsetted by 667:
01 [b8213e25] (3/5) Accurately ripped
02 [d12b27ac] (3/5) Accurately ripped
03 [cb457804] (3/5) Accurately ripped
04 [41e3aefb] (3/5) Accurately ripped
05 [3ed6dac4] (3/5) Accurately ripped
06 [fbe1348f] (3/5) Accurately ripped
07 [c695c0fb] (3/5) Accurately ripped
08 [0118df04] (3/5) Accurately ripped
09 [0825bd2a] (3/5) Accurately ripped
10 [878813c6] (3/5) Accurately ripped
11 [c46b3b70] (3/5) Accurately ripped
Track Peak [ CRC32 ] [W/O NULL] [ LOG ]
-- 95,5 [B5DBD896] [DF0A4398]
01 93,8 [EE0F87CA] [CCAF1FBC] CRC32
02 94,4 [56939F28] [8DA38DE9] CRC32
03 93,3 [CAA8D6EE] [B20309D0] CRC32
04 93,3 [8E085680] [CF67D460] CRC32
05 95,5 [176083A9] [09B2BC2A] CRC32
06 94,3 [1C899EBB] [B69A2632] CRC32
07 93,2 [437E87F4] [7EC6487D] CRC32
08 94,2 [E485FEE5] [50D7E3E2] CRC32
09 94,0 [2E71A1C6] [0919D6ED] CRC32
10 94,1 [D4673C76] [4B64112A] CRC32
11 94,2 [BD127411] [3181B20D] CRC32
 
Об альбоме (сборнике)
There are some great players on this album (originally released in 1964). Sergio Mendes plays piano, the great Milton Banana plays drums, and Brasil '66 alumni Sebastião Neto plays bass. And then there is Carlos Lyra--one of my favorites from the bossa nova era, and an important bossa stylist--on guitar and vocal. American Paul Winter plays alto saxophone--he's not bad, but very bland--he's no Stan Getz, that's for sure. You can tell this album was an attempt to capitalize on the sax/bossa nova combination that made history through Stan Getz, João Gilberto and Tom Jobim. Though it's not close to the greatness of the Getz/Gilberto album, this is nonetheless a nice batch of tracks--any early Carlos Lyra is good Carlos Lyra. Carlos even sings some in English--including some humorous English lyrics at the end of Lyra's classic "Lôbo Bôbo". Other classics include "Maria Ninguém", "Aruanda", Tém Do de Mim", "Se é Tarde Me Perdoa" and "Você e Eu". I would suggest that you look for this if you are a Carlos Lyra fan (especially his early Philips recordings).
-- amazon customer
20:51
302
Нет комментариев. Ваш будет первым!