Поиск

(Latin Jazz,Bossa Nova) Walter Wanderley - Rain Forest (1966) - 2012, FLAC (image+.cue), lossless

(Latin Jazz,Bossa Nova) Walter Wanderley - Rain Forest (1966) - 2012, FLAC (image+.cue), lossless
Треклист:
Walter Wanderley / Rain Forest (1966)
Жанр: Latin Jazz,Bossa Nova
Год издания: 2012
Аудиокодек: FLAC (*.flac)
Тип рипа: image+.cue
Битрейт аудио: lossless
Продолжительность: 34:34
Источник (релизер): my disc
Наличие сканов в содержимом раздачи: да
Треклист:
01. Summer Samba (Samba De Verao) [0:03:06.72]
02. It's Easy To Say Goodbye [0:02:03.20]
03. Cried,Cried [0:02:26.08]
04. Rain [0:03:48.02]
05. The Girl From Ipanema [0:02:38.60]
06. Beloved Melancholy [0:02:43.48]
07. Taste Of Sadness [0:02:54.02]
08. Beach Samba [0:03:54.60]
09. Call Me [0:02:25.43]
10. Cry Out Your Sadness [0:02:47.00]
11. The Great Love [0:03:04.17]
12. Song Of The Jet [0:02:41.50]
 
Лог создания рипа
Exact Audio Copy V0.99 prebeta 4 from 23. January 2008
Отчёт EAC об извлечении, выполненном 21. марта 2013, 16:39
Walter Wanderley / Rain Forest
Дисковод: ASUS DRW-1814BL Adapter: 1 ID: 0
Режим чтения : Достоверность
Использование точного потока : Да
Отключение кэша аудио : Да
Использование указателей C2 : Нет
Коррекция смещения при чтении : 6
Способность читать области Lead-in и Lead-out : Нет
Заполнение пропущенных сэмплов тишиной : Да
Удаление блоков с тишиной в начале и конце : Нет
При вычислениях CRC использовались нулевые сэмплы : Да
Интерфейс : Установленный внешний ASPI-интерфейс
Выходной формат : Пользовательский кодировщик
Выбранный битрейт : 1024 kBit/s
Качество : Высокий
Добавление ID3-тэга : Нет
Утилита сжатия : C:\Program Files\Exact Audio Copy\FLAC\FLAC.EXE
Дополнительные параметры : -6 -V -T "ARTIST=%a" -T "TITLE=%t" -T "ALBUM=%g" -T "DATE=%y" -T "TRACKNUMBER=%n" -T "GENRE=%m" -T "COMMENT=%e" %s -o %d
TOC извлечённого CD
Трек | Старт | Длительность | Начальный сектор | Конечный сектор
---------------------------------------------------------------------
1 | 0:00.00 | 3:06.72 | 0 | 14021
2 | 3:06.72 | 2:03.20 | 14022 | 23266
3 | 5:10.17 | 2:26.08 | 23267 | 34224
4 | 7:36.25 | 3:48.02 | 34225 | 51326
5 | 11:24.27 | 2:38.60 | 51327 | 63236
6 | 14:03.12 | 2:43.48 | 63237 | 75509
7 | 16:46.60 | 2:54.02 | 75510 | 88561
8 | 19:40.62 | 3:54.60 | 88562 | 106171
9 | 23:35.47 | 2:25.43 | 106172 | 117089
10 | 26:01.15 | 2:47.00 | 117090 | 129614
11 | 28:48.15 | 3:04.17 | 129615 | 143431
12 | 31:52.32 | 2:41.50 | 143432 | 155556
Характеристики диапазона извлечения и сообщения об ошибках
Выбранный диапазон
Имя файла D:\loSSleSS\W.Wanderley'66\Walter Wanderley - Rain Forest.wav
Пиковый уровень 100.0 %
Качество диапазона 99.9 %
CRC теста ADFD826F
CRC копии ADFD826F
Копирование... OK
Ошибок не произошло
AccurateRip: сводка
Трек 1 точность не определена (достоверность 4) [2895E1DA], AccurateRip вернул [B0E23B1F]
Трек 2 точность не определена (достоверность 4) [49B902DB], AccurateRip вернул [1FC4E464]
Трек 3 точность не определена (достоверность 4) [5BDA69D7], AccurateRip вернул [2331632D]
Трек 4 точность не определена (достоверность 4) [7EA11D04], AccurateRip вернул [B5272630]
Трек 5 точность не определена (достоверность 4) [6753B2B8], AccurateRip вернул [9ED40744]
Трек 6 точность не определена (достоверность 4) [A1AB6B59], AccurateRip вернул [BB8A76F4]
Трек 7 точность не определена (достоверность 4) [81DA9CF5], AccurateRip вернул [FE21D93B]
Трек 8 точность не определена (достоверность 4) [AED4FD51], AccurateRip вернул [2DB86C3E]
Трек 9 точность не определена (достоверность 4) [6602D3BC], AccurateRip вернул [AA293956]
Трек 10 точность не определена (достоверность 4) [18E8A210], AccurateRip вернул [5D6BB9B6]
Трек 11 точность не определена (достоверность 4) [78DDA761], AccurateRip вернул [27DE7C80]
Трек 12 точность не определена (достоверность 4) [93C38365], AccurateRip вернул [359FD403]
Ни один трек не прошёл проверки на точность
В вашей базе может быть иной вариант штамповки диска
Конец отчёта
Доп. информация: Мини винил из 30-альбомного бокса,корейского производства,Jazz Train,выпущеного в 2012.Выложил сторону бокса с картинками альбомов,может кому будет интересно содержимое и послушайте качество записи.
 
Об исполнителе (группе)
Уолтер Вандерлей (Walter Wanderley, 12.05.1932 - 04.09.1986) - бразильский боссанова-, лаундж-органист и пианист. Был женат на Isaurinha Garcia, одной из самых популярных бразильских певиц. Записывался на рекорд-лейблах Verve, A&M/CTI, Canyon Records. Сотрудничал с Astrud Gilberto, Joao Gilberto, Claudio Slon, Jose Marino и другими.
 
Состав
Walter Wanderley (organ)
Bucky Pizzarelli (guitar)
Joe Grimm (flute)
Urbie Green (trombone)
Claudio Slon (drums)
Bobby Rosengarden (percussion
09:59
376
Нет комментариев. Ваш будет первым!