Поиск

(Jazz-Funk, Jam Band, World Fusion, Groove) Trey Anastasio - The Horseshoe Curve (feat. Cyro Baptista, Peter Apfelbaum, Giant Country Horns) - 2007, FLAC (tracks+.cue), lossless

(Jazz-Funk, Jam Band, World Fusion, Groove) Trey Anastasio - The Horseshoe Curve (feat. Cyro Baptista, Peter Apfelbaum, Giant Country Horns) - 2007, FLAC (tracks+.cue), lossless
Треклист:
Trey Anastasio / The Horseshoe Curve
Жанр: Jazz-Funk, Jam Band, World Fusion, Groove
Год издания: 2007
Издатель (лейбл): Rubber Jungle Records
Номер по каталогу: RJRTA-5
Страна: USA
Аудиокодек: FLAC (*.flac)
Тип рипа: tracks+.cue
Битрейт аудио: lossless
Продолжительность: 00:43:48
Источник (релизер): stones2621
Наличие сканов в содержимом раздачи: да (front+inlay)
Треклист:
1. Sidewalks of San Francisco
2. Olivia
3. Burlap Sack & Pumps
4. The 5th Round
5. The Horseshoe Curve
6. Noodle Rave
7. Tube Top Tony
8. Porters Pyramids
youtube
 
Лог создания рипа
Exact Audio Copy V0.99 prebeta 4 from 23. January 2008
EAC extraction logfile from 26. September 2009, 16:49
Trey Anastasio / The Horseshoe Curve
Used drive : HL-DT-STDVDRAM GH15F Adapter: 1 ID: 0
Read mode : Secure
Utilize accurate stream : Yes
Defeat audio cache : Yes
Make use of C2 pointers : No
Read offset correction : 667
Overread into Lead-In and Lead-Out : No
Fill up missing offset samples with silence : Yes
Delete leading and trailing silent blocks : No
Null samples used in CRC calculations : Yes
Used interface : Native Win32 interface for Win NT & 2000
Gap handling : Appended to previous track
Used output format : Internal WAV Routines
Sample format : 44.100 Hz; 16 Bit; Stereo
TOC of the extracted CD
Track | Start | Length | Start sector | End sector
---------------------------------------------------------
1 | 0:00.00 | 4:06.27 | 0 | 18476
2 | 4:06.27 | 8:22.34 | 18477 | 56160
3 | 12:28.61 | 6:58.49 | 56161 | 87559
4 | 19:27.35 | 6:19.21 | 87560 | 116005
5 | 25:46.56 | 6:20.03 | 116006 | 144508
6 | 32:06.59 | 5:14.01 | 144509 | 168059
7 | 37:20.60 | 3:34.58 | 168060 | 184167
8 | 40:55.43 | 2:53.09 | 184168 | 197151
Track 1
Filename K:\Music\EAC Rips\Trey Anastasio - 2007 - The Horseshoe Curve\01 - Sidewalk of San Francisco.wav
Pre-gap length 0:00:02.00
Peak level 99.7 %
Track quality 99.9 %
Test CRC 31DEA793
Copy CRC 31DEA793
Accurately ripped (confidence 6) [351F2D83]
Copy OK
Track 2
Filename K:\Music\EAC Rips\Trey Anastasio - 2007 - The Horseshoe Curve\02 - Olivia.wav
Pre-gap length 0:00:00.38
Peak level 100.0 %
Track quality 100.0 %
Test CRC EADC0262
Copy CRC EADC0262
Accurately ripped (confidence 6) [9A957AFF]
Copy OK
Track 3
Filename K:\Music\EAC Rips\Trey Anastasio - 2007 - The Horseshoe Curve\03 - Burlap Sack & Pumps.wav
Peak level 100.0 %
Track quality 100.0 %
Test CRC C9C5D6FC
Copy CRC C9C5D6FC
Accurately ripped (confidence 6) [F86D8884]
Copy OK
Track 4
Filename K:\Music\EAC Rips\Trey Anastasio - 2007 - The Horseshoe Curve\04 - The 5th Round.wav
Pre-gap length 0:00:03.14
Peak level 99.5 %
Track quality 100.0 %
Test CRC 462CA795
Copy CRC 462CA795
Accurately ripped (confidence 6) [A6A6A4AB]
Copy OK
Track 5
Filename K:\Music\EAC Rips\Trey Anastasio - 2007 - The Horseshoe Curve\05 - The Horseshoe Curve.wav
Peak level 100.0 %
Track quality 100.0 %
Test CRC F5804279
Copy CRC F5804279
Accurately ripped (confidence 6) [6BA16FD3]
Copy OK
Track 6
Filename K:\Music\EAC Rips\Trey Anastasio - 2007 - The Horseshoe Curve\06 - Noodle Rave.wav
Peak level 100.0 %
Track quality 100.0 %
Test CRC D39FD680
Copy CRC D39FD680
Accurately ripped (confidence 6) [64C5EC7C]
Copy OK
Track 7
Filename K:\Music\EAC Rips\Trey Anastasio - 2007 - The Horseshoe Curve\07 - Tube Top Tony.wav
Pre-gap length 0:00:01.12
Peak level 100.0 %
Track quality 100.0 %
Test CRC 64BA31C0
Copy CRC 64BA31C0
Accurately ripped (confidence 6) [ED9F0196]
Copy OK
Track 8
Filename K:\Music\EAC Rips\Trey Anastasio - 2007 - The Horseshoe Curve\08 - Porters Pyramids.wav
Pre-gap length 0:00:00.97
Peak level 100.0 %
Track quality 100.0 %
Test CRC 90C150CD
Copy CRC 90C150CD
Accurately ripped (confidence 6) [16A928CA]
Copy OK
All tracks accurately ripped
No errors occurred
End of status report
 
Содержание индексной карты (.CUE)
REM DATE 2007
REM DISCID 6F0A4408
REM COMMENT "ExactAudioCopy v0.99pb4"
FILE "01 - Sidewalk of San Francisco.wav" WAVE
TRACK 01 AUDIO
INDEX 01 00:00:00
TRACK 02 AUDIO
INDEX 00 04:05:73
FILE "02 - Olivia.wav" WAVE
INDEX 01 00:00:00
FILE "03 - Burlap Sack & Pumps.wav" WAVE
TRACK 03 AUDIO
INDEX 01 00:00:00
TRACK 04 AUDIO
INDEX 00 06:55:38
FILE "04 - The 5th Round.wav" WAVE
INDEX 01 00:00:00
FILE "05 - The Horseshoe Curve.wav" WAVE
TRACK 05 AUDIO
INDEX 01 00:00:00
FILE "06 - Noodle Rave.wav" WAVE
TRACK 06 AUDIO
INDEX 01 00:00:00
TRACK 07 AUDIO
INDEX 00 05:12:67
FILE "07 - Tube Top Tony.wav" WAVE
INDEX 01 00:00:00
TRACK 08 AUDIO
INDEX 00 03:33:60
FILE "08 - Porters Pyramids.wav" WAVE
INDEX 01 00:00:00
 
Об альбоме (сборнике)
The Horseshoe Curve is a big hello-there both for those who never cared for (or got) Phish and the formerly faithful who felt abandoned by the last couple of solo albums from the defunct jamband’s guitarist and de facto leader. The fumbling singer-songwriter of those efforts is gone, for now at least, replaced by an in-control funkmeister who’s been spending time with his Tower of Power and James Brown records (or sounds like he has, anyway)—and maybe a little Sun Ra and Miles, too.
jazztimes.com
allmusic.com
 
Состав
Andy Moroz - Trombone
Cyro Baptista - percussion
Dave Grippo - alto/baritone saxophone
Jennifer Hartswick - trumpet
Peter Apfelbaum - tenor/baritone saxophone
Russell Remington - tenor saxophone/flute
Ray Paczkowski - keyboards
Russ Lawton - drums
Tony Markellis - bass
Trey Anastasio - guitar, vocals
10:58
620
Нет комментариев. Ваш будет первым!