Поиск

(Latin jazz, Bossa Nova) Sabrina Malheiros - Dreaming - 2011, FLAC (tracks+.cue), lossless

(Latin jazz, Bossa Nova) Sabrina Malheiros - Dreaming - 2011, FLAC (tracks+.cue), lossless
Треклист:
Sabrina Malheiros / Dreaming
Жанр: Latin jazz, Bossa Nova
Год издания диска: 2011
Издатель (лейбл): Far Out Recordings
Аудиокодек: FLAC (*.flac)
Тип рипа: tracks+.cue
Битрейт аудио: lossless
Продолжительность: 53:02
Источник (релизер): israbox (Hkus)
Наличие сканов в содержимом раздачи: нет
Треклист:
1 Bobeira [Digital Dreamin' Intro] 2:30
2 Lirio De Venus 4:14
3 Bobeira 5:46
4 Fragil 4:41
5 Candeia 4:16
6 Opará 4:33
7 Lirio De Venus [Interlude] 1:32
8 Paranóia 3:38
9 Segredo 5:42
10 Can't Hide Love 4:17
11 Primeira 5:13
12 Tem Dendê 4:10
13 Bobeira (Digital Dreamin' Outro) 2:32
 
Лог создания рипа
Exact Audio Copy V1.0 beta 1 from 15. November 2010
EAC extraction logfile from 6. October 2011, 22:49
Sabrina Malheiros / Dreaming
Used drive : HL-DT-STDVD+-RW GH50N Adapter: 1 ID: 0
Read mode : Secure
Utilize accurate stream : Yes
Defeat audio cache : Yes
Make use of C2 pointers : No
Read offset correction : 667
Overread into Lead-In and Lead-Out : No
Fill up missing offset samples with silence : Yes
Delete leading and trailing silent blocks : No
Null samples used in CRC calculations : Yes
Used interface : Native Win32 interface for Win NT & 2000
Gap handling : Appended to previous track
Used output format : User Defined Encoder
Selected bitrate : 128 kBit/s
Quality : High
Add ID3 tag : No
Command line compressor : C:\Program Files\Exact Audio Copy\Flac\flac.exe
Additional command line options : -V -8 -T "artist=%a" -T "title=%t" -T "album=%g" -T "date=%y" -T "tracknumber=%n" -T "genre=%m" %s
TOC of the extracted CD
Track | Start | Length | Start sector | End sector
---------------------------------------------------------
1 | 0:00.00 | 2:30.00 | 0 | 11249
2 | 2:30.00 | 4:13.57 | 11250 | 30281
3 | 6:43.57 | 5:45.67 | 30282 | 56223
4 | 12:29.49 | 4:41.05 | 56224 | 77303
5 | 17:10.54 | 4:15.53 | 77304 | 96481
6 | 21:26.32 | 4:33.01 | 96482 | 116957
7 | 25:59.33 | 1:31.42 | 116958 | 123824
8 | 27:31.00 | 3:37.72 | 123825 | 140171
9 | 31:08.72 | 5:41.57 | 140172 | 165803
10 | 36:50.54 | 4:17.25 | 165804 | 185103
11 | 41:08.04 | 5:12.44 | 185104 | 208547
12 | 46:20.48 | 4:09.68 | 208548 | 227290
13 | 50:30.41 | 2:31.56 | 227291 | 238671
Track 1
Filename C:\EAC RIP [bossman]\Sabrina Malheiros - Dreaming (2011) [fLaC]\01 - Bobeira (Digital Dreaming Intro) - Sabrina Malheiros.wav
Pre-gap length 0:00:02.00
Peak level 100.0 %
Extraction speed 1.6 X
Track quality 100.0 %
Test CRC D4260FEC
Copy CRC D4260FEC
Track not present in AccurateRip database
Copy OK
Track 2
Filename C:\EAC RIP [bossman]\Sabrina Malheiros - Dreaming (2011) [fLaC]\02 - Lirio De Venus - Sabrina Malheiros.wav
Pre-gap length 0:00:00.61
Peak level 100.0 %
Extraction speed 2.0 X
Track quality 100.0 %
Test CRC BA710466
Copy CRC BA710466
Track not present in AccurateRip database
Copy OK
Track 3
Filename C:\EAC RIP [bossman]\Sabrina Malheiros - Dreaming (2011) [fLaC]\03 - Bobeira - Sabrina Malheiros.wav
Pre-gap length 0:00:00.73
Peak level 100.0 %
Extraction speed 2.3 X
Track quality 100.0 %
Test CRC 3B76C765
Copy CRC 3B76C765
Track not present in AccurateRip database
Copy OK
Track 4
Filename C:\EAC RIP [bossman]\Sabrina Malheiros - Dreaming (2011) [fLaC]\04 - Fragil - Sabrina Malheiros.wav
Pre-gap length 0:00:00.73
Peak level 100.0 %
Extraction speed 2.5 X
Track quality 100.0 %
Test CRC 834A2FF7
Copy CRC 834A2FF7
Track not present in AccurateRip database
Copy OK
Track 5
Filename C:\EAC RIP [bossman]\Sabrina Malheiros - Dreaming (2011) [fLaC]\05 - Candeia - Sabrina Malheiros.wav
Pre-gap length 0:00:00.73
Peak level 100.0 %
Extraction speed 2.3 X
Track quality 99.9 %
Test CRC E9575FC1
Copy CRC E9575FC1
Track not present in AccurateRip database
Copy OK
Track 6
Filename C:\EAC RIP [bossman]\Sabrina Malheiros - Dreaming (2011) [fLaC]\06 - Opará - Sabrina Malheiros.wav
Pre-gap length 0:00:00.73
Peak level 100.0 %
Extraction speed 2.9 X
Track quality 100.0 %
Test CRC 1A211BF7
Copy CRC 1A211BF7
Track not present in AccurateRip database
Copy OK
Track 7
Filename C:\EAC RIP [bossman]\Sabrina Malheiros - Dreaming (2011) [fLaC]\07 - Lirio De Venus (Interlude) - Sabrina Malheiros.wav
Pre-gap length 0:00:00.73
Peak level 99.7 %
Extraction speed 2.2 X
Track quality 100.0 %
Test CRC 6A77C2D4
Copy CRC 6A77C2D4
Track not present in AccurateRip database
Copy OK
Track 8
Filename C:\EAC RIP [bossman]\Sabrina Malheiros - Dreaming (2011) [fLaC]\08 - Paranóia - Sabrina Malheiros.wav
Pre-gap length 0:00:00.73
Peak level 100.0 %
Extraction speed 3.0 X
Track quality 100.0 %
Test CRC 0289F5BF
Copy CRC 0289F5BF
Track not present in AccurateRip database
Copy OK
Track 9
Filename C:\EAC RIP [bossman]\Sabrina Malheiros - Dreaming (2011) [fLaC]\09 - Segredo - Sabrina Malheiros.wav
Pre-gap length 0:00:00.73
Peak level 100.0 %
Extraction speed 3.4 X
Track quality 100.0 %
Test CRC 0937FF50
Copy CRC 0937FF50
Track not present in AccurateRip database
Copy OK
Track 10
Filename C:\EAC RIP [bossman]\Sabrina Malheiros - Dreaming (2011) [fLaC]\10 - Can't Hide Love - Sabrina Malheiros.wav
Pre-gap length 0:00:00.73
Peak level 100.0 %
Extraction speed 2.9 X
Track quality 99.9 %
Test CRC 69E7AFA3
Copy CRC 69E7AFA3
Track not present in AccurateRip database
Copy OK
Track 11
Filename C:\EAC RIP [bossman]\Sabrina Malheiros - Dreaming (2011) [fLaC]\11 - Primeira - Sabrina Malheiros.wav
Pre-gap length 0:00:00.73
Peak level 100.0 %
Extraction speed 3.6 X
Track quality 100.0 %
Test CRC B8518D85
Copy CRC B8518D85
Track not present in AccurateRip database
Copy OK
Track 12
Filename C:\EAC RIP [bossman]\Sabrina Malheiros - Dreaming (2011) [fLaC]\12 - Tem Dendê - Sabrina Malheiros.wav
Pre-gap length 0:00:00.73
Peak level 100.0 %
Extraction speed 3.6 X
Track quality 100.0 %
Test CRC 95EA3CAF
Copy CRC 95EA3CAF
Track not present in AccurateRip database
Copy OK
Track 13
Filename C:\EAC RIP [bossman]\Sabrina Malheiros - Dreaming (2011) [fLaC]\13 - Bobeira (Digital Dreamin' Outro) - Sabrina Malheiros.wav
Pre-gap length 0:00:00.73
Peak level 100.0 %
Extraction speed 3.4 X
Track quality 100.0 %
Test CRC D1F2B82E
Copy CRC D1F2B82E
Track not present in AccurateRip database
Copy OK
None of the tracks are present in the AccurateRip database
No errors occurred
End of status report
==== Log checksum F4A056DF4292A8F051CE9897D964D4468123F763B367DD39C03F2134348CBF45 ====
 
Содержание индексной карты (.CUE)
REM GENRE Jazz
REM DATE 2011
REM DISCID 940C6E0D
REM COMMENT "ExactAudioCopy v1.0b1"
PERFORMER "Sabrina Malheiros"
TITLE "Dreaming"
FILE "01 - Bobeira (Digital Dreaming Intro) - Sabrina Malheiros.flac" WAVE
TRACK 01 AUDIO
TITLE "Bobeira (Digital Dreaming Intro)"
PERFORMER "Sabrina Malheiros"
INDEX 01 00:00:00
TRACK 02 AUDIO
TITLE "Lirio De Venus"
PERFORMER "Sabrina Malheiros"
INDEX 00 02:29:29
FILE "02 - Lirio De Venus - Sabrina Malheiros.flac" WAVE
INDEX 01 00:00:00
TRACK 03 AUDIO
TITLE "Bobeira"
PERFORMER "Sabrina Malheiros"
INDEX 00 04:13:02
FILE "03 - Bobeira - Sabrina Malheiros.flac" WAVE
INDEX 01 00:00:00
TRACK 04 AUDIO
TITLE "Fragil"
PERFORMER "Sabrina Malheiros"
INDEX 00 05:45:12
FILE "04 - Fragil - Sabrina Malheiros.flac" WAVE
INDEX 01 00:00:00
TRACK 05 AUDIO
TITLE "Candeia"
PERFORMER "Sabrina Malheiros"
INDEX 00 04:40:25
FILE "05 - Candeia - Sabrina Malheiros.flac" WAVE
INDEX 01 00:00:00
TRACK 06 AUDIO
TITLE "Opara"
PERFORMER "Sabrina Malheiros"
INDEX 00 04:14:73
FILE "06 - Opara - Sabrina Malheiros.flac" WAVE
INDEX 01 00:00:00
TRACK 07 AUDIO
TITLE "Lirio De Venus (Interlude)"
PERFORMER "Sabrina Malheiros"
INDEX 00 04:32:21
FILE "07 - Lirio De Venus (Interlude) - Sabrina Malheiros.flac" WAVE
INDEX 01 00:00:00
TRACK 08 AUDIO
TITLE "Paranoia"
PERFORMER "Sabrina Malheiros"
INDEX 00 01:30:62
FILE "08 - Paranoia - Sabrina Malheiros.flac" WAVE
INDEX 01 00:00:00
TRACK 09 AUDIO
TITLE "Segredo"
PERFORMER "Sabrina Malheiros"
INDEX 00 03:37:17
FILE "09 - Segredo - Sabrina Malheiros.flac" WAVE
INDEX 01 00:00:00
TRACK 10 AUDIO
TITLE "Can't Hide Love"
PERFORMER "Sabrina Malheiros"
INDEX 00 05:41:02
FILE "10 - Can't Hide Love - Sabrina Malheiros.flac" WAVE
INDEX 01 00:00:00
TRACK 11 AUDIO
TITLE "Primeira"
PERFORMER "Sabrina Malheiros"
INDEX 00 04:16:45
FILE "11 - Primeira - Sabrina Malheiros.flac" WAVE
INDEX 01 00:00:00
TRACK 12 AUDIO
TITLE "Tem Dendy"
PERFORMER "Sabrina Malheiros"
INDEX 00 05:11:64
FILE "12 - Tem Dendy - Sabrina Malheiros.flac" WAVE
INDEX 01 00:00:00
TRACK 13 AUDIO
TITLE "Bobeira (Digital Dreamin' Outro)"
PERFORMER "Sabrina Malheiros"
INDEX 00 04:09:13
FILE "13 - Bobeira (Digital Dreamin' Outro) - Sabrina Malheiros.flac" WAVE
INDEX 01 00:00:00
 
Лог проверки качества
AUDIOCHECKER v2.0 beta (build 457) - by Dester - opdester@freemail.hu
~~~~~~~~~~~~~~~~~~~~~~~~~~~~~~~~~~
-=== DO NOT EDIT THIS FILE! ===-
Path: ...\Sabrina Malheiros - Dreaming (2011) [fLaC]
01 -=- 01 - Bobeira (Digital Dreaming Intro) - Sabrina Malheiros.flac -=- CDDA (100%)
02 -=- 02 - Lirio De Venus - Sabrina Malheiros.flac -=- CDDA (100%)
03 -=- 03 - Bobeira - Sabrina Malheiros.flac -=- CDDA (100%)
04 -=- 04 - Fragil - Sabrina Malheiros.flac -=- CDDA (100%)
05 -=- 05 - Candeia - Sabrina Malheiros.flac -=- CDDA (100%)
06 -=- 06 - Opara - Sabrina Malheiros.flac -=- CDDA (100%)
07 -=- 07 - Lirio De Venus (Interlude) - Sabrina Malheiros.flac -=- CDDA (94%)
08 -=- 08 - Paranoia - Sabrina Malheiros.flac -=- CDDA (99%)
09 -=- 09 - Segredo - Sabrina Malheiros.flac -=- CDDA (100%)
10 -=- 10 - Can't Hide Love - Sabrina Malheiros.flac -=- CDDA (100%)
11 -=- 11 - Primeira - Sabrina Malheiros.flac -=- CDDA (100%)
12 -=- 12 - Tem Dendу - Sabrina Malheiros.flac -=- CDDA (100%)
13 -=- 13 - Bobeira (Digital Dreamin' Outro) - Sabrina Malheiros.flac -=- CDDA (99%)
Summary 99,38% CDDA
4201812
 
Об альбоме (сборнике)
The third original studio album from Rio's nu-bossa star, Sabrina Malheiros, combines the minimal electronic soul inspired sound of her debut Equilibria with the sweeping organic Brazilian pop of New Morning and traditional sounds of Brazil. Linking past and present Malheiros mixes seductive styles to create a truly original sound for the future. Dreaming is her finest work yet confirming Malheiros as one of the finest female Brazilian songwriters of her generation. Featuring leading Brazilian musicians including Alex Malheiros (Azymuth); Jesse Sadoc (Marcos Valle); Alfredo Cardim (Joyce); Robertinho Silva (Milton Nascimento) and written and co-produced with Sabrina by partner Daniel 'Venom' Maunick (Viper Squad / son of Bluey Incognito) the record finds a beautiful place between nu-Rio, classic Brazil, and the complex melodic electronica emerging from the post-dubstep and drum & bass London soundscape.
Leading the nu-bossa generation with the likes of Bebel Gilberto, Malheiros has built a fanbase around the world addicted to her distinctive blissful sound. With her debut album 'Equilibria' on Far Out in 2005 Sabrina Malheiros arrived in a wave of instant acclaim playing her debut shows in the UK and Japan. The 2006 remix album 'Vibrasons' – including Nicola Conte, Quantic and Kenny Dope reworks – was followed with sophomore album 'New Morning' – declared the "best album of summer 2008" Evening Standard. A bigger production, featuring string arrangements from Arthur Verocai, the album broke Sabrina in America with debut tours in Germany, Holland and a UK return.
As the daughter of Alex Malheiros, bass player of Far Out's legendary Brazilian group Azymuth Sabrina was born to sing bossa nova and write ground-breaking music. Her classical contemporary Brazilian blend takes a number of surprising routes. On 'Fragil' Sabrina employs renowned samba percussionist Robertinho Silva to deliver her delicate take on Brazil's African routes; 'Bobeira' is a breezy chill-out while its 'Digital Dreaming Reprise' opener adds Maunick's deep beats and addictive synths - those warping lines continuing flawlessly in to the following tracks. Sabrina's special pattern for writing music (alone, with her father Alex and partner Daniel) brings recurring chords and sequences with a huge variety of influences and ideas. Sabrina shows just how far this writing talent stretches as she arks back to '70s Brazil with the dreamy acid-folk 'Lirio de Venus (Interlude)' before bringing things right in to modern electronic-era with big dub bass, scratching together with trademark soft acoustic guitar and harmonies on 'Paranoia'. Altogether Malheiros' third full-length record is a lyrical and melodic dream to take her star far higher.
Приятных впечатлений!
00:27
548
Нет комментариев. Ваш будет первым!