Поиск

(Bossa Nova, Samba, Brazilian Jazz) Joao Nogueira - A Musica Brasileira Deste Seculo Por Seus Autores e Interpretes (1975) - 2000, FLAC (tracks+.cue), lossless

Треклист:
João Nogueira
A Música Brasileira Deste Século
Por Seus Autores e Intérpretes
Originally recording from MPB Especial in May 1975



.
Жанр: Bossa Nova, Samba, Brazilian Jazz | Страна: Brazil
Дата выпуска альбома / диска: 2000 | Производитель диска: SESC, Brazil
Аудио кодек: FLAC | Тип рипа: tracks+.cue | Битрейт аудио: lossless
+ PNG art scans
Источник (релизёр): original CD, ripped by Flabber
Продолжительность: 54:05


~ TRACKLiST ~
01. E La Que Eu Vou (Mensageiro) (3:11)
(João Nogueira, Paulo César Pinheiro)
02. Batendo A Porta (4:50)
(João Nogueira, Paulo César Pinheiro)
03. Cigana (6:08)
(Romualdo Peixoto, Paulo Roberto)
04. Mãe Solteira (2:24)
(Wilson Baptista, Jorge de Castro)
05. Menina Moça (2:57)
(Luis Aontônio)
06. Neuza (6:06)
(Zinco, Caxambu)
07. A Timidez Me Devora (3:28)
(Jorginho, Walter Rosa)
08. Cuidado Com A Outra (5:36)
(Nelson Cavaquinho, Augusto Thomas)
09. Mulher Valente é Minha Mãe (2:38)
(João Nogueira)
10. O Homem De Um Braço Só (2:15)
(João Nogueira)
11. Meu Lema(3:47)
(João Nogueira, Gisa Nogueira)
12. Beto Navalha (4:13)
(João Nogueira)
13. Do Jeito Que O Rei Mandou (4:19)
(João Nogueira, Zé Catimba)
14. Das 200 Pra Lá (2:13)
(João Nogueira)
.Eduardo Gudin - violão / acoustic guitar
João Nogueira - vocal .
 
EAC log
Exact Audio Copy V0.99 prebeta 5 from 4. May 2009
EAC extraction logfile from 9. May 2011, 19:08
Joao Nogueira / A Musica Brasileira Deste Seculo Por Seus Autores E Interpretes
Used drive : PLEXTOR DVDR PX-880SA Adapter: 3 ID: 1
Read mode : Secure
Utilize accurate stream : Yes
Defeat audio cache : Yes
Make use of C2 pointers : No
Read offset correction : 6
Overread into Lead-In and Lead-Out : No
Fill up missing offset samples with silence : Yes
Delete leading and trailing silent blocks : No
Null samples used in CRC calculations : Yes
Used interface : Native Win32 interface for Win NT & 2000
Gap handling : Appended to previous track
Used output format : User Defined Encoder
Selected bitrate : 768 kBit/s
Quality : High
Add ID3 tag : No
Command line compressor : C:\Program Files (x86)\Exact Audio Copy\FLAC\FLAC.EXE
Additional command line options : -8 -V -T "ARTIST=%a" -T "TITLE=%t" -T "ALBUM=%g" -T "DATE=%y" -T
"TRACKNUMBER=%n" -T "TOTALTRACKS=%x" -T "GENRE=%m" -T "ALBUM ARTIST=%v" -T "ALBUMARTIST=%v" -T
"COMMENT=EAC V0.99 prebeta 5, Secure Mode, Test & Copy, Accurat
TOC of the extracted CD
Track | Start | Length | Start sector | End sector
---------------------------------------------------------
1 | 0:00.00 | 3:11.30 | 0 | 14354
2 | 3:11.30 | 4:50.22 | 14355 | 36126
3 | 8:01.52 | 6:08.33 | 36127 | 63759
4 | 14:10.10 | 2:24.67 | 63760 | 74626
5 | 16:35.02 | 2:57.18 | 74627 | 87919
6 | 19:32.20 | 6:06.72 | 87920 | 115441
7 | 25:39.17 | 3:28.33 | 115442 | 131074
8 | 29:07.50 | 5:36.59 | 131075 | 156333
9 | 34:44.34 | 2:38.06 | 156334 | 168189
10 | 37:22.40 | 2:15.62 | 168190 | 178376
11 | 39:38.27 | 3:47.20 | 178377 | 195421
12 | 43:25.47 | 4:13.33 | 195422 | 214429
13 | 47:39.05 | 4:19.67 | 214430 | 233921
14 | 51:58.72 | 2:13.23 | 233922 | 243919
Track 1
Filename N:\01 - E La Que Eu Vou (Mensageiro).wav
Pre-gap length 0:00:02.00
Peak level 87.4 %
Track quality 100.0 %
Test CRC 39CA229C
Copy CRC 39CA229C
Track not present in AccurateRip database
Copy OK
Track 2
Filename N:\02 - Batendo A Porta.wav
Peak level 92.2 %
Track quality 100.0 %
Test CRC E1E2FD7E
Copy CRC E1E2FD7E
Track not present in AccurateRip database
Copy OK
Track 3
Filename N:\03 - Cigana.wav
Peak level 95.1 %
Track quality 100.0 %
Test CRC F23495AA
Copy CRC F23495AA
Track not present in AccurateRip database
Copy OK
Track 4
Filename N:\04 - Mae Solteira.wav
Peak level 99.9 %
Track quality 100.0 %
Test CRC 37A4B752
Copy CRC 37A4B752
Track not present in AccurateRip database
Copy OK
Track 5
Filename N:\05 - Menina Moca.wav
Peak level 93.0 %
Track quality 100.0 %
Test CRC BF9156E1
Copy CRC BF9156E1
Track not present in AccurateRip database
Copy OK
Track 6
Filename N:\06 - Neuza.wav
Peak level 100.0 %
Track quality 100.0 %
Test CRC 6DC62727
Copy CRC 6DC62727
Track not present in AccurateRip database
Copy OK
Track 7
Filename N:\07 - A Timidez Me Devora.wav
Peak level 93.4 %
Track quality 100.0 %
Test CRC CFD17971
Copy CRC CFD17971
Track not present in AccurateRip database
Copy OK
Track 8
Filename N:\08 - Cuidado Com A Outra.wav
Peak level 99.9 %
Track quality 100.0 %
Test CRC 8A66994B
Copy CRC 8A66994B
Track not present in AccurateRip database
Copy OK
Track 9
Filename N:\09 - Mulher Valente E Minha Mae.wav
Peak level 86.9 %
Track quality 99.9 %
Test CRC 5D2D4F8D
Copy CRC 5D2D4F8D
Track not present in AccurateRip database
Copy OK
Track 10
Filename N:\10 - O Homem De Um Braco So.wav
Peak level 96.4 %
Track quality 99.9 %
Test CRC 3C7B7C25
Copy CRC 3C7B7C25
Track not present in AccurateRip database
Copy OK
Track 11
Filename N:\11 - Meu Lema.wav
Peak level 82.8 %
Track quality 100.0 %
Test CRC E90CF8E8
Copy CRC E90CF8E8
Track not present in AccurateRip database
Copy OK
Track 12
Filename N:\12 - Beto Navalha.wav
Peak level 99.9 %
Track quality 100.0 %
Test CRC FA1456C4
Copy CRC FA1456C4
Track not present in AccurateRip database
Copy OK
Track 13
Filename N:\13 - Do Jeito Que O Rei Mandou.wav
Peak level 88.9 %
Track quality 100.0 %
Test CRC AB6BA082
Copy CRC AB6BA082
Track not present in AccurateRip database
Copy OK
Track 14
Filename N:\14 - Das 200 Pra La.wav
Peak level 75.5 %
Track quality 100.0 %
Test CRC 1FD43F5C
Copy CRC 1FD43F5C
Track not present in AccurateRip database
Copy OK
None of the tracks are present in the AccurateRip database
No errors occurred
End of status report
 
*.cue
REM GENRE Samba
REM DATE 1975
REM DISCID C20CB40E
REM COMMENT "ExactAudioCopy v0.99pb5"
PERFORMER "Joao Nogueira"
TITLE "A Musica Brasileira Deste Seculo Por Seus Autores E Interpretes"
FILE "01 - E La Que Eu Vou (Mensageiro).wav" WAVE
TRACK 01 AUDIO
TITLE "E La Que Eu Vou (Mensageiro)"
PERFORMER "Joao Nogueira"
INDEX 01 00:00:00
FILE "02 - Batendo A Porta.wav" WAVE
TRACK 02 AUDIO
TITLE "Batendo A Porta"
PERFORMER "Joao Nogueira"
INDEX 01 00:00:00
FILE "03 - Cigana.wav" WAVE
TRACK 03 AUDIO
TITLE "Cigana"
PERFORMER "Joao Nogueira"
INDEX 01 00:00:00
FILE "04 - Mae Solteira.wav" WAVE
TRACK 04 AUDIO
TITLE "Mae Solteira"
PERFORMER "Joao Nogueira"
INDEX 01 00:00:00
FILE "05 - Menina Moca.wav" WAVE
TRACK 05 AUDIO
TITLE "Menina Moca"
PERFORMER "Joao Nogueira"
INDEX 01 00:00:00
FILE "06 - Neuza.wav" WAVE
TRACK 06 AUDIO
TITLE "Neuza"
PERFORMER "Joao Nogueira"
INDEX 01 00:00:00
FILE "07 - A Timidez Me Devora.wav" WAVE
TRACK 07 AUDIO
TITLE "A Timidez Me Devora"
PERFORMER "Joao Nogueira"
INDEX 01 00:00:00
FILE "08 - Cuidado Com A Outra.wav" WAVE
TRACK 08 AUDIO
TITLE "Cuidado Com A Outra"
PERFORMER "Joao Nogueira"
INDEX 01 00:00:00
FILE "09 - Mulher Valente E Minha Mae.wav" WAVE
TRACK 09 AUDIO
TITLE "Mulher Valente E Minha Mae"
PERFORMER "Joao Nogueira"
INDEX 01 00:00:00
FILE "10 - O Homem De Um Braco So.wav" WAVE
TRACK 10 AUDIO
TITLE "O Homem De Um Braco So"
PERFORMER "Joao Nogueira"
INDEX 01 00:00:00
FILE "11 - Meu Lema.wav" WAVE
TRACK 11 AUDIO
TITLE "Meu Lema"
PERFORMER "Joao Nogueira"
INDEX 01 00:00:00
FILE "12 - Beto Navalha.wav" WAVE
TRACK 12 AUDIO
TITLE "Beto Navalha"
PERFORMER "Joao Nogueira"
INDEX 01 00:00:00
FILE "13 - Do Jeito Que O Rei Mandou.wav" WAVE
TRACK 13 AUDIO
TITLE "Do Jeito Que O Rei Mandou"
PERFORMER "Joao Nogueira"
INDEX 01 00:00:00
FILE "14 - Das 200 Pra La.wav" WAVE
TRACK 14 AUDIO
TITLE "Das 200 Pra La"
PERFORMER "Joao Nogueira"
INDEX 01 00:00:00
 
Audiochecker’s log
AUDIOCHECKER v2.0 beta (build 457) - by Dester - opdester@freemail.hu
~~~~~~~~~~~~~~~~~~~~~~~~~~~~~~~~~~
Started at: среда, 05. 10. 2011. - 14:57.34
14 files found
01 -===- F:\Joao Nogueira - A Musica Brasileira Deste Seculo (1975) 2000 [flac]\01 - E La Que Eu Vou (Mensageiro).flac
Extracted successfully
Conclusion: this track is CDDA with probability 99%
Tempfile successfully deleted.
02 -===- F:\Joao Nogueira - A Musica Brasileira Deste Seculo (1975) 2000 [flac]\02 - Batendo A Porta.flac
Extracted successfully
Conclusion: this track is MPEG with probability 93%
Tempfile successfully deleted.
03 -===- F:\Joao Nogueira - A Musica Brasileira Deste Seculo (1975) 2000 [flac]\03 - Cigana.flac
Extracted successfully
Conclusion: this track is MPEG with probability 92%
Tempfile successfully deleted.
04 -===- F:\Joao Nogueira - A Musica Brasileira Deste Seculo (1975) 2000 [flac]\04 - Mae Solteira.flac
Extracted successfully
Conclusion: this track is CDDA with probability 100%
Tempfile successfully deleted.
05 -===- F:\Joao Nogueira - A Musica Brasileira Deste Seculo (1975) 2000 [flac]\05 - Menina Moca.flac
Extracted successfully
Conclusion: this track is CDDA with probability 49%
Tempfile successfully deleted.
06 -===- F:\Joao Nogueira - A Musica Brasileira Deste Seculo (1975) 2000 [flac]\06 - Neuza.flac
Extracted successfully
Conclusion: this track is CDDA with probability 100%
Tempfile successfully deleted.
07 -===- F:\Joao Nogueira - A Musica Brasileira Deste Seculo (1975) 2000 [flac]\07 - A Timidez Me Devora.flac
Extracted successfully
Conclusion: this track is CDDA with probability 86%
Tempfile successfully deleted.
08 -===- F:\Joao Nogueira - A Musica Brasileira Deste Seculo (1975) 2000 [flac]\08 - Cuidado Com A Outra.flac
Extracted successfully
Conclusion: this track is CDDA with probability 86%
Tempfile successfully deleted.
09 -===- F:\Joao Nogueira - A Musica Brasileira Deste Seculo (1975) 2000 [flac]\09 - Mulher Valente E Minha Mae.flac
Extracted successfully
Conclusion: this track is CDDA with probability 100%
Tempfile successfully deleted.
10 -===- F:\Joao Nogueira - A Musica Brasileira Deste Seculo (1975) 2000 [flac]\10 - O Homem De Um Braco So.flac
Extracted successfully
Conclusion: this track is CDDA with probability 100%
Tempfile successfully deleted.
11 -===- F:\Joao Nogueira - A Musica Brasileira Deste Seculo (1975) 2000 [flac]\11 - Meu Lema.flac
Extracted successfully
Conclusion: this track is MPEG with probability 89%
Tempfile successfully deleted.
12 -===- F:\Joao Nogueira - A Musica Brasileira Deste Seculo (1975) 2000 [flac]\12 - Beto Navalha.flac
Extracted successfully
Conclusion: this track is CDDA with probability 54%
Tempfile successfully deleted.
13 -===- F:\Joao Nogueira - A Musica Brasileira Deste Seculo (1975) 2000 [flac]\13 - Do Jeito Que O Rei Mandou.flac
Extracted successfully
Conclusion: this track is CDDA with probability 100%
Tempfile successfully deleted.
14 -===- F:\Joao Nogueira - A Musica Brasileira Deste Seculo (1975) 2000 [flac]\14 - Das 200 Pra La.flac
Extracted successfully
Conclusion: this track is CDDA with probability 100%
Tempfile successfully deleted.
Finished at: среда, 05. 10. 2011. - 15:28.41 (operation time: 0:31.07)
.
00:28
295
Нет комментариев. Ваш будет первым!