Поиск

(Latin Jazz, Bossa Nova) [CD] Lisa Ono - Pretty World - 2000, FLAC (tracks+.cue), lossless

(Latin Jazz, Bossa Nova) [CD] Lisa Ono - Pretty World - 2000, FLAC (tracks+.cue), lossless
Треклист:
Lisa Ono - Pretty World
Жанр: Latin Jazz, Bossa Nova
Носитель: CD
Год издания: 2000
Издатель (лейбл): Toshiba EMI
Номер по каталогу: TOCT-24371
Аудиокодек: FLAC (*.flac)
Тип рипа: tracks+.cue
Битрейт аудио: lossless
Продолжительность: 46:39
Источник (релизер): What.cd (disorderian)
Наличие сканов в содержимом раздачи: нет
Треклист:
01. Un Homme Et Une Femme (4:11)
02. I Wish You Love (3:48)
03. My Cherie Amour (4:02)
04. Be With Me (3:27)
05. Pretty World (3:38)
06. All The Way (2:25)
07. Mr. Tom (5:00)
08. I Left My Heart In San Francisco (3:56)
09. Yesterday (3:09)
10. This Masquarade (4:43)
11. You Are The Sunshine Of My Life (4:40)
12. Every Breath You Take (3:39)
 
 
Лог создания рипа
Exact Audio Copy V1.0 beta 3 from 29. August 2011
EAC extraction logfile from 13. December 2013, 18:51
Lisa Ono / Pretty World
Used drive : PLEXTOR DVDR PX-L890SA Adapter: 0 ID: 0
Read mode : Secure
Utilize accurate stream : Yes
Defeat audio cache : Yes
Make use of C2 pointers : No
Read offset correction : 6
Overread into Lead-In and Lead-Out : No
Fill up missing offset samples with silence : Yes
Delete leading and trailing silent blocks : No
Null samples used in CRC calculations : Yes
Used interface : Native Win32 interface for Win NT & 2000
Gap handling : Appended to previous track
Used output format : User Defined Encoder
Selected bitrate : 896 kBit/s
Quality : High
Add ID3 tag : No
Command line compressor : C:\Program Files (x86)\FLAC\flac.exe
Additional command line options : -8 -V -T "ARTIST=%artist%" -T "TITLE=%title%" -T "ALBUM=%albumtitle%" -T "DATE=%year%" -T "TRACKNUMBER=%tracknr%" -T "GENRE=%genre%" -T "PERFORMER=%albuminterpret%" -T "COMPOSER=%composer%" %haslyrics%--tag-from-file=LYRICS="%lyricsfile%"%haslyrics% -T "ALBUMARTIST=%albumartist%" -T "DISCNUMBER=%cdnumber%" -T "TOTALDISCS=%totalcds%" -T "TOTALTRACKS=%numtracks%" -T "COMMENT=%comment%" %source% -o %dest%
TOC of the extracted CD
Track | Start | Length | Start sector | End sector
---------------------------------------------------------
1 | 0:00.00 | 4:10.72 | 0 | 18821
2 | 4:10.72 | 3:48.35 | 18822 | 35956
3 | 7:59.32 | 4:02.10 | 35957 | 54116
4 | 12:01.42 | 3:27.00 | 54117 | 69641
5 | 15:28.42 | 3:38.05 | 69642 | 85996
6 | 19:06.47 | 2:25.02 | 85997 | 96873
7 | 21:31.49 | 4:59.48 | 96874 | 119346
8 | 26:31.22 | 3:56.20 | 119347 | 137066
9 | 30:27.42 | 3:09.30 | 137067 | 151271
10 | 33:36.72 | 4:43.01 | 151272 | 172497
11 | 38:19.73 | 4:40.03 | 172498 | 193500
12 | 43:00.01 | 3:39.14 | 193501 | 209939
Track 1
Filename E:\PT\Lisa Ono - Pretty World\01.Un Homme Et Une Femme.wav
Pre-gap length 0:00:02.00
Peak level 100.0 %
Extraction speed 2.8 X
Track quality 99.9 %
Test CRC FBB79879
Copy CRC FBB79879
Accurately ripped (confidence 12) [9196B1E1] (AR v2)
Copy OK
Track 2
Filename E:\PT\Lisa Ono - Pretty World\02.I Wish You Love.wav
Pre-gap length 0:00:03.45
Peak level 100.0 %
Extraction speed 3.7 X
Track quality 100.0 %
Test CRC AB1BEB31
Copy CRC AB1BEB31
Accurately ripped (confidence 12) [D4F7EC18] (AR v2)
Copy OK
Track 3
Filename E:\PT\Lisa Ono - Pretty World\03.My Cherie Amour.wav
Pre-gap length 0:00:02.45
Peak level 100.0 %
Extraction speed 4.1 X
Track quality 100.0 %
Test CRC E344D690
Copy CRC E344D690
Accurately ripped (confidence 12) [7F06C920] (AR v2)
Copy OK
Track 4
Filename E:\PT\Lisa Ono - Pretty World\04.Be With Me.wav
Pre-gap length 0:00:05.45
Peak level 100.0 %
Extraction speed 4.2 X
Track quality 100.0 %
Test CRC A6F9D2E4
Copy CRC A6F9D2E4
Accurately ripped (confidence 12) [084FFCA2] (AR v2)
Copy OK
Track 5
Filename E:\PT\Lisa Ono - Pretty World\05.Pretty World.wav
Pre-gap length 0:00:02.45
Peak level 100.0 %
Extraction speed 4.5 X
Track quality 100.0 %
Test CRC 96D50310
Copy CRC 96D50310
Accurately ripped (confidence 12) [4C1830D8] (AR v2)
Copy OK
Track 6
Filename E:\PT\Lisa Ono - Pretty World\06.All The Way.wav
Pre-gap length 0:00:03.45
Peak level 100.0 %
Extraction speed 4.4 X
Track quality 100.0 %
Test CRC F33A9E64
Copy CRC F33A9E64
Accurately ripped (confidence 12) [7269F4D4] (AR v2)
Copy OK
Track 7
Filename E:\PT\Lisa Ono - Pretty World\07.Mr.Tom.wav
Pre-gap length 0:00:04.45
Peak level 100.0 %
Extraction speed 5.2 X
Track quality 100.0 %
Test CRC 1B9BCEC9
Copy CRC 1B9BCEC9
Accurately ripped (confidence 12) [D3CBAD82] (AR v2)
Copy OK
Track 8
Filename E:\PT\Lisa Ono - Pretty World\08.I Left My Heart in San Francisco.wav
Pre-gap length 0:00:02.45
Peak level 100.0 %
Extraction speed 5.3 X
Track quality 100.0 %
Test CRC 85DF0665
Copy CRC 85DF0665
Accurately ripped (confidence 12) [F2CF60C7] (AR v2)
Copy OK
Track 9
Filename E:\PT\Lisa Ono - Pretty World\09.Yesterday.wav
Pre-gap length 0:00:05.45
Peak level 100.0 %
Extraction speed 5.3 X
Track quality 100.0 %
Test CRC D1C8E953
Copy CRC D1C8E953
Accurately ripped (confidence 12) [90EB28E3] (AR v2)
Copy OK
Track 10
Filename E:\PT\Lisa Ono - Pretty World\10.This Masquarade.wav
Pre-gap length 0:00:03.45
Peak level 100.0 %
Extraction speed 5.8 X
Track quality 100.0 %
Test CRC 1FCD3429
Copy CRC 1FCD3429
Accurately ripped (confidence 12) [B3CD5CD3] (AR v2)
Copy OK
Track 11
Filename E:\PT\Lisa Ono - Pretty World\11.You Are The Sunshine Of My Life.wav
Pre-gap length 0:00:02.45
Peak level 100.0 %
Extraction speed 6.0 X
Track quality 100.0 %
Test CRC F141F310
Copy CRC F141F310
Accurately ripped (confidence 12) [86546284] (AR v2)
Copy OK
Track 12
Filename E:\PT\Lisa Ono - Pretty World\12.Every Breath You Take.wav
Pre-gap length 0:00:04.45
Peak level 100.0 %
Extraction speed 6.1 X
Track quality 100.0 %
Test CRC 68AC84DD
Copy CRC 68AC84DD
Accurately ripped (confidence 12) [35398E8F] (AR v2)
Copy OK
All tracks accurately ripped
No errors occurred
End of status report
---- CUETools DB Plugin V2.1.5
[CTDB TOCID: bN9Y_0Fe_VszOm6JdPlVdbWV7us-] found
Submit result: already submitted
Track | CTDB Status
1 | (11/11) Accurately ripped
2 | (11/11) Accurately ripped
3 | (11/11) Accurately ripped
4 | (11/11) Accurately ripped
5 | (11/11) Accurately ripped
6 | (11/11) Accurately ripped
7 | (11/11) Accurately ripped
8 | (11/11) Accurately ripped
9 | (11/11) Accurately ripped
10 | (10/11) Accurately ripped
11 | (10/11) Accurately ripped
12 | (11/11) Accurately ripped
==== Log checksum 6B6C4ADAE53119D83407B0DDA2A93EC5A7E61702FACB2794A365C18B0452E7B0 ====
 
Содержание индексной карты (.CUE)
REM GENRE "Bossa Nova"
REM DATE 2000
REM DISCID 950AEF0C
REM COMMENT "ExactAudioCopy v1.0b3"
PERFORMER "Lisa Ono"
TITLE "Pretty World"
FILE "01. Un Homme Et Une Femme.flac" WAVE
TRACK 01 AUDIO
TITLE "Un Homme Et Une Femme"
PERFORMER "Lisa Ono"
INDEX 01 00:00:00
TRACK 02 AUDIO
TITLE "I Wish You Love"
PERFORMER "Lisa Ono"
INDEX 00 04:07:27
FILE "02. I Wish You Love.flac" WAVE
INDEX 01 00:00:00
TRACK 03 AUDIO
TITLE "My Cherie Amour"
PERFORMER "Lisa Ono"
INDEX 00 03:45:65
FILE "03. My Cherie Amour.flac" WAVE
INDEX 01 00:00:00
TRACK 04 AUDIO
TITLE "Be With Me"
PERFORMER "Lisa Ono"
INDEX 00 03:56:40
FILE "04. Be With Me.flac" WAVE
INDEX 01 00:00:00
TRACK 05 AUDIO
TITLE "Pretty World"
PERFORMER "Lisa Ono"
INDEX 00 03:24:30
FILE "05. Pretty World.flac" WAVE
INDEX 01 00:00:00
TRACK 06 AUDIO
TITLE "All The Way"
PERFORMER "Lisa Ono"
INDEX 00 03:34:35
FILE "06. All The Way.flac" WAVE
INDEX 01 00:00:00
TRACK 07 AUDIO
TITLE "Mr. Tom"
PERFORMER "Lisa Ono"
INDEX 00 02:20:32
FILE "07. Mr. Tom.flac" WAVE
INDEX 01 00:00:00
TRACK 08 AUDIO
TITLE "I Left My Heart In San Francisco"
PERFORMER "Lisa Ono"
INDEX 00 04:57:03
FILE "08. I Left My Heart In San Francisco.flac" WAVE
INDEX 01 00:00:00
TRACK 09 AUDIO
TITLE "Yesterday"
PERFORMER "Lisa Ono"
INDEX 00 03:50:50
FILE "09. Yesterday.flac" WAVE
INDEX 01 00:00:00
TRACK 10 AUDIO
TITLE "This Masquarade"
PERFORMER "Lisa Ono"
INDEX 00 03:05:60
FILE "10. This Masquarade.flac" WAVE
INDEX 01 00:00:00
TRACK 11 AUDIO
TITLE "You Are The Sunshine Of My Life"
PERFORMER "Lisa Ono"
INDEX 00 04:40:31
FILE "11. You Are The Sunshine Of My Life.flac" WAVE
INDEX 01 00:00:00
TRACK 12 AUDIO
TITLE "Every Breath You Take"
PERFORMER "Lisa Ono"
INDEX 00 04:35:33
FILE "12. Every Breath You Take.flac" WAVE
INDEX 01 00:00:00
 
AccurateRip
[CUETools log; Date: 09.05.2014 17:02:18; Version: 2.0.9]
[CTDB TOCID: bN9Y_0Fe_VszOm6JdPlVdbWV7us-] found.
[ CTDBID ] Status
[e57d4c86] (12/13) Accurately ripped
[56ac2454] (01/13) NotFound
[AccurateRip ID: 0014860a-00bf8f77-950aef0c] found.
Track [ CRC ] Status
01 [41fd0a09] (09/24) Accurately ripped
02 [808b5ef8] (09/24) Accurately ripped
03 [ff9b6633] (09/24) Accurately ripped
04 [eb632492] (09/24) Accurately ripped
05 [276acbb2] (09/24) Accurately ripped
06 [0fd4e201] (09/24) Accurately ripped
07 [2217b543] (09/24) Accurately ripped
08 [7d9f525a] (09/24) Accurately ripped
09 [0d027a34] (09/24) Accurately ripped
10 [6f2ebca3] (09/24) Accurately ripped
11 [f2196099] (09/24) Accurately ripped
12 [ded9510c] (09/24) Accurately ripped
Track Peak [ CRC32 ] [W/O NULL] [ LOG ]
-- 100,0 [82C13575] [42F51682]
01 100,0 [FBB79879] [25DF065E] CRC32
02 100,0 [AB1BEB31] [94F43D31] CRC32
03 100,0 [E344D690] [9B4500AA] CRC32
04 100,0 [A6F9D2E4] [33DF35EA] CRC32
05 100,0 [96D50310] [BAD6823B] CRC32
06 100,0 [F33A9E64] [E0274845] CRC32
07 100,0 [1B9BCEC9] [D2536BEC] CRC32
08 100,0 [85DF0665] [3A21F043] CRC32
09 100,0 [D1C8E953] [DFD62648] CRC32
10 100,0 [1FCD3429] [E8C41B2B] CRC32
11 100,0 [F141F310] [05A33CCB] CRC32
12 100,0 [68AC84DD] [6A3AE93D] CRC32
14:25
308
Нет комментариев. Ваш будет первым!