Поиск

(Contemporary Jazz) [CD] Mihaly Borbely Quartet (Borbely Mihaly) - Hommage a Kodaly - 2009, FLAC (image+.cue), lossless

(Contemporary Jazz) [CD] Mihaly Borbely Quartet (Borbely Mihaly) - Hommage a Kodaly - 2009, FLAC (image+.cue), lossless
Треклист:
Mihály Borbély Quartet / Hommage à Kodály
Жанр: Contemporary Jazz
Носитель: CD
Страна-производитель диска: Hungary
Год издания: 2009
Издатель (лейбл): Budapest Music Center Records
Номер по каталогу: BMC CD 187
Аудиокодек: FLAC (*.flac)
Тип рипа: image+.cue
Битрейт аудио: lossless
Продолжительность: 56:01
Источник (релизер): CD
Наличие сканов в содержимом раздачи: нет
Треклист:
01. The music begins (1:25)
02. Marosszék (4:47)
03. Evening by the campfire (1:53)
04. Nocturne - Transylvania blues (6:35)
05. Sonata for solo cello, 3rd movement (11:32)
06. Tilinkós, Kodály’s own (6:09)
07. Sonatina (8:10)
08. The shepherd of hope (7:35)
09. Epigram No. 3 (1:17)
10. Passacaglia (3:11)
11. Epigram No. 5 (0:49)
12. Recruit (2:38)
 
Лог создания рипа
Exact Audio Copy V1.0 beta 2 from 29. April 2011
EAC extraction logfile from 6. May 2014, 13:14
Mihaly Borbely Quartet / Hommage a Kodaly
Used drive : Optiarc DVD RW AD-7170A Adapter: 0 ID: 0
Read mode : Secure
Utilize accurate stream : Yes
Defeat audio cache : Yes
Make use of C2 pointers : No
Read offset correction : 48
Overread into Lead-In and Lead-Out : No
Fill up missing offset samples with silence : Yes
Delete leading and trailing silent blocks : No
Null samples used in CRC calculations : Yes
Used interface : Native Win32 interface for Win NT & 2000
Used output format : User Defined Encoder
Selected bitrate : 320 kBit/s
Quality : High
Add ID3 tag : No
Command line compressor : C:\Program Files\Exact Audio Copy\Flac\flac.exe
Additional command line options : -V -8 -T "Date=%year%" -T "Genre=%genre%" %source%
TOC of the extracted CD
Track | Start | Length | Start sector | End sector
---------------------------------------------------------
1 | 0:00.00 | 1:25.33 | 0 | 6407
2 | 1:25.33 | 4:47.12 | 6408 | 27944
3 | 6:12.45 | 1:52.68 | 27945 | 36412
4 | 8:05.38 | 6:35.13 | 36413 | 66050
5 | 14:40.51 | 11:31.41 | 66051 | 117916
6 | 26:12.17 | 6:08.44 | 117917 | 145560
7 | 32:20.61 | 8:10.32 | 145561 | 182342
8 | 40:31.18 | 7:34.72 | 182343 | 216464
9 | 48:06.15 | 1:17.12 | 216465 | 222251
10 | 49:23.27 | 3:10.71 | 222252 | 236572
11 | 52:34.23 | 0:49.02 | 236573 | 240249
12 | 53:23.25 | 2:38.29 | 240250 | 252128
Range status and errors
Selected range
Filename K:\ЕАС\Mihaly Borbely Quartet - Hommage a Kodaly.wav
Peak level 98.3 %
Extraction speed 2.0 X
Range quality 100.0 %
Test CRC C00010C6
Copy CRC C00010C6
Copy OK
No errors occurred
AccurateRip summary
Track 1 accurately ripped (confidence 1) [D46749B2] (AR v1)
Track 2 accurately ripped (confidence 1) [F80DCEAB] (AR v1)
Track 3 accurately ripped (confidence 1) [F215CC8F] (AR v1)
Track 4 accurately ripped (confidence 1) [5285DECE] (AR v1)
Track 5 accurately ripped (confidence 1) [42B6A4B3] (AR v1)
Track 6 accurately ripped (confidence 1) [98E8C530] (AR v1)
Track 7 accurately ripped (confidence 1) [28246B63] (AR v1)
Track 8 accurately ripped (confidence 1) [7910E62F] (AR v1)
Track 9 accurately ripped (confidence 1) [A3487C06] (AR v1)
Track 10 accurately ripped (confidence 1) [0AB51105] (AR v1)
Track 11 accurately ripped (confidence 1) [9DE17932] (AR v1)
Track 12 accurately ripped (confidence 1) [A4B8A5FB] (AR v1)
All tracks accurately ripped
End of status report
==== Log checksum 464DFD024F7300F1C0C9B3C3F427AE9937282F005DC719954B549972C068BECD ====
 
Содержание индексной карты (.CUE)
REM GENRE Jazz
REM DATE 2009
REM DISCID BA0D210C
REM COMMENT "ExactAudioCopy v1.0b2"
PERFORMER "Mihaly Borbely Quartet"
TITLE "Hommage a Kodaly"
FILE "Mihaly Borbely Quartet - Hommage a Kodaly.flac" WAVE
TRACK 01 AUDIO
TITLE "The music begins"
PERFORMER "Mihaly Borbely Quartet"
ISRC HUA150815501
FLAGS DCP
INDEX 01 00:00:00
TRACK 02 AUDIO
TITLE "Marosszek"
PERFORMER "Mihaly Borbely Quartet"
ISRC HUA150815502
FLAGS DCP
INDEX 01 01:25:33
TRACK 03 AUDIO
TITLE "Evening by the campfire"
PERFORMER "Mihaly Borbely Quartet"
ISRC HUA150815503
FLAGS DCP
INDEX 01 06:12:45
TRACK 04 AUDIO
TITLE "Nocturne - Transylvania blues"
PERFORMER "Mihaly Borbely Quartet"
ISRC HUA150815504
FLAGS DCP
INDEX 01 08:05:38
TRACK 05 AUDIO
TITLE "Sonata for solo cello, 3rd movement"
PERFORMER "Mihaly Borbely Quartet"
ISRC HUA150815505
FLAGS DCP
INDEX 01 14:40:51
TRACK 06 AUDIO
TITLE "Tilinkos, Kodaly's own"
PERFORMER "Mihaly Borbely Quartet"
ISRC HUA150815506
FLAGS DCP
INDEX 01 26:12:17
TRACK 07 AUDIO
TITLE "Sonatina"
PERFORMER "Mihaly Borbely Quartet"
ISRC HUA150815507
FLAGS DCP
INDEX 01 32:20:61
TRACK 08 AUDIO
TITLE "The shepherd of hope"
PERFORMER "Mihaly Borbely Quartet"
ISRC HUA150815508
FLAGS DCP
INDEX 01 40:31:18
TRACK 09 AUDIO
TITLE "Epigram No. 3"
PERFORMER "Mihaly Borbely Quartet"
ISRC HUA150815509
FLAGS DCP
INDEX 01 48:06:15
TRACK 10 AUDIO
TITLE "Passacaglia"
PERFORMER "Mihaly Borbely Quartet"
ISRC HUA150815510
FLAGS DCP
INDEX 01 49:23:27
TRACK 11 AUDIO
TITLE "Epigram No. 5"
PERFORMER "Mihaly Borbely Quartet"
ISRC HUA150815511
FLAGS DCP
INDEX 01 52:34:23
TRACK 12 AUDIO
TITLE "Recruit"
PERFORMER "Mihaly Borbely Quartet"
ISRC HUA150815512
FLAGS DCP
INDEX 01 53:23:25
Доп. информация: Recorded at Rákoshegyi Bartók Zeneház, Budapest, 12-15 October, 2008
 
Об альбоме (сборнике)
This album is a personal testimony: to Kodály’s music, to the timeless beauty of folk music and its lasting power.
 
Состав
Mihály Borbély - clarinet, tárogató, soprano sax, tilinkó
Dániel Szabó - piano
Balázs Horváth - double bass
István Baló - drums (Gustavito, made in Hungary)
Balázs Kántor - violoncello
14:26
233
Нет комментариев. Ваш будет первым!