Поиск

(Latin Jazz, Bossa Nova) [CD] Lisa Ono - As Time Goes By (Lisa Ono's Collection) - 2000, FLAC (image+.cue), lossless

(Latin Jazz, Bossa Nova) [CD] Lisa Ono - As Time Goes By (Lisa Ono's Collection) - 2000, FLAC (image+.cue), lossless
Треклист:
Lisa Ono - As Time Goes By
Жанр: Latin Jazz, Bossa Nova
Носитель: CD
Страна-производитель диска (релиза): Тайвань
Год издания: 2000
Издатель (лейбл): EMI (Taiwan) Ltd
Номер по каталогу: 7243 529096 29
Аудиокодек: FLAC (*.flac)
Тип рипа: image+.cue
Битрейт аудио: lossless
Продолжительность: 51:04
Источник (релизер): emule
Наличие сканов в содержимом раздачи: да
Треклист:
01. Red Blouse (Jobim) - 2:36
02. Beijo Partido (Horta) - 4:24
03. Moon River (Mancini-Mercer) - 4:21
04. So Danco Samba (Jobim-De Moraes) - 2:31
05. Samba de Verao (Valle-Valle) - 2:11
06. O Barquinho (Menescal-Boscoli) - 3:26
07. Palpite Infeliz (Rosa) - 4:26
08. Moonlight Serenade (Miller-Parish) - 2:42
09. Tea for Two (Youmans-Caesar-Valle) - 3:19
10. As Time Goes By (Hupfeld) - 3:53
11. Angel's Eyes (Ono-Michiru) - 3:18
12. I Wish You Love (Trenet-Chauliac-Beach) - 3:46
13. Be with Me (Ono-Deodato) - 3:28
14. Pretty World (Gaspar-Bergman-Bergman) - 3:36
15. Yesterday (Lennon-McCartney) - 3:08
Сборник записей 1997-2000 гг.
 
Лог создания рипа
EAC 抓取日誌檔案從10. 十二月 2005, 23:22 用於 CD
Lisa Ono / As Time Goes By
使用光碟機 :LITE-ON COMBO SOHC-5232K Adapter: 0 ID: 2
讀取模式 :不使用 C2,使用精確流, 停止緩存的安全模式
讀取錯誤修正:0
讀取 Lead-In 和 Lead-Out : 否
所用輸出模式:C:\Program Files\Monkey's Audio\MAC.exe (Monkey's Audio Lossless Encoder)
Fast Lossless Compression
附加命令行參數:-V -8 -T "artist=%a" -T "title=%t" -T "album=%g" -T "date=%y" -T "tracknumber=%n" -T "genre=%m" -T "comment= Encoded by xxxxx " %s
其他選項 :
用靜音填充抓取中丟失偏移的取樣 : 是
去除首尾靜音區塊 : 否
已安裝外部 ASPI 介面
範圍狀態及錯誤
已選擇範圍
檔案名稱 E:\Lisa Ono - As Time Goes By.wav
峰值電平 100.0 %
範圍質量 99.9 %
CRC 99909582
複製完成
沒有錯誤發生
狀態報告結尾
 
Содержание индексной карты (.CUE)
REM GENRE Jazz
REM DATE 2000
REM DISCID E10BF80F
REM COMMENT "ExactAudioCopy v0.95b3"
PERFORMER "Lisa Ono"
TITLE "As Time Goes By"
FILE "Lisa Ono - As Time Goes By.wav" WAVE
TRACK 01 AUDIO
TITLE "Red Blouse"
PERFORMER "Lisa Ono"
INDEX 01 00:00:00
TRACK 02 AUDIO
TITLE "Beijo Partido"
PERFORMER "Lisa Ono"
INDEX 01 02:36:30
TRACK 03 AUDIO
TITLE "Moon River"
PERFORMER "Lisa Ono"
INDEX 01 07:00:25
TRACK 04 AUDIO
TITLE "So Danco Samba"
PERFORMER "Lisa Ono"
INDEX 01 11:21:15
TRACK 05 AUDIO
TITLE "Samba de Verao"
PERFORMER "Lisa Ono"
INDEX 01 13:52:14
TRACK 06 AUDIO
TITLE "O Barquinho"
PERFORMER "Lisa Ono"
INDEX 01 16:02:71
TRACK 07 AUDIO
TITLE "Palpite Infeliz"
PERFORMER "Lisa Ono"
INDEX 01 19:28:71
TRACK 08 AUDIO
TITLE "Moonlight Serenade"
PERFORMER "Lisa Ono"
INDEX 01 23:54:42
TRACK 09 AUDIO
TITLE "Tea for Two"
PERFORMER "Lisa Ono"
INDEX 01 26:36:11
TRACK 10 AUDIO
TITLE "As Time Goes By"
PERFORMER "Lisa Ono"
INDEX 01 29:54:68
TRACK 11 AUDIO
TITLE "Angel's Eyes"
PERFORMER "Lisa Ono"
INDEX 01 33:47:67
TRACK 12 AUDIO
TITLE "I Wish You Love"
PERFORMER "Lisa Ono"
INDEX 01 37:05:56
TRACK 13 AUDIO
TITLE "Be with Me"
PERFORMER "Lisa Ono"
INDEX 01 40:51:74
TRACK 14 AUDIO
TITLE "Pretty World"
PERFORMER "Lisa Ono"
INDEX 01 44:20:33
TRACK 15 AUDIO
TITLE "Yesterday"
PERFORMER "Lisa Ono"
INDEX 01 47:56:19
 
Отчет CUETools
[CUETools log; Date: 30.09.2015 2:02:54; Version: 2.1.5]
[CTDB TOCID: 5BYd9mySdhyISiKMmM6xPvAGCBw-] found.
Track | CTDB Status
1 | (3/3) Accurately ripped
2 | (3/3) Accurately ripped
3 | (3/3) Accurately ripped
4 | (3/3) Accurately ripped
5 | (3/3) Accurately ripped
6 | (3/3) Accurately ripped
7 | (3/3) Accurately ripped
8 | (3/3) Accurately ripped
9 | (3/3) Accurately ripped
10 | (3/3) Accurately ripped
11 | (3/3) Accurately ripped
12 | (3/3) Accurately ripped
13 | (3/3) Accurately ripped
14 | (3/3) Accurately ripped
15 | (3/3) Accurately ripped
[AccurateRip ID: 001bdef8-013c7302-e10bf80f] found.
Track [ CRC | V2 ] Status
01 [9070c7e9|39c27b09] (0+0/2) No match
02 [4b21c749|0356978c] (0+0/2) No match
03 [0d025bae|b683bfeb] (0+0/2) No match
04 [8ddd2e16|ec5d257d] (0+0/2) No match
05 [e935532d|5d9568e6] (0+0/2) No match
06 [d58b620a|bd8db37f] (0+0/2) No match
07 [b0b44d99|1a4f206a] (0+0/2) No match
08 [3d3d710e|2da8c9ad] (0+0/2) No match
09 [b4ff2968|2ef4f888] (0+0/2) No match
10 [d7a1fcb1|7fab9bf4] (0+0/2) No match
11 [0c04b0b6|b60285a7] (0+0/2) No match
12 [98e750ec|ad31c47f] (0+0/2) No match
13 [eefb8e4b|853bf346] (0+0/2) No match
14 [186f4703|e1f2e958] (0+0/2) No match
15 [322f9624|c8a05711] (0+0/2) No match
Track Peak [ CRC32 ] [W/O NULL]
-- 100,0 [99909582] [2B9EEEB7]
01 100,0 [163F2AE5] [DF753E59]
02 100,0 [D2BE43B2] [86F0BD64]
03 100,0 [FA16F4EE] [0B27EC19]
04 100,0 [6045D233] [8E83A726]
05 100,0 [4FAF9DC5] [3BC166C1]
06 100,0 [1F9705AC] [CE17E61C]
07 100,0 [53E3B5DD] [779FFC80]
08 94,3 [CCCD4EA7] [7593FA04]
09 90,2 [3F5FF3A2] [373A0A9B]
10 91,4 [6A6778C1] [9A4CF908]
11 96,6 [E0113005] [DA4FB822]
12 100,0 [29D5F88F] [1E3F42E7]
13 100,0 [CDE226CF] [812404D1]
14 100,0 [FD5BD6A8] [F6228DAA]
15 100,0 [9E42B004] [19F4E656]
19:33
348
Нет комментариев. Ваш будет первым!