Поиск

(Bossa Nova, Vocal Jazz) [CD] Gretchen Parlato - Gretchen Parlato - 2005, FLAC (tracks+.cue), lossless

Треклист:
Gretchen Parlato - Gretchen Parlato
Жанр: Bossa Nova, Vocal Jazz
Носитель: CD
Страна-производитель диска (релиза): США
Год издания: 2005
Издатель (лейбл): Self-Released
Аудиокодек: FLAC (*.flac)
Тип рипа: tracks+.cue
Битрейт аудио: lossless
Продолжительность: 39:21
Источник (релизер): Chiptune (what)
Наличие сканов в содержимом раздачи: сетевые
Треклист:
01. Skylark (Carmichael) - 4:21
02. Flor de Lis (D'Javan) - 6:30
03. Come to Me (Bjork) - 5:20
04. Nonvignon (Loueke) - 4:28
05. Ela e Carioca (Jobim) - 5:08
06. Chega de Saudade (Jobim) - 3:18
07. Benny's Tune (Loueke) - 5:42
08. Juju/Footprints (Shorter) - 4:34
Состав:
Gretchen Parlato - vocals, percussion
Lionel Loueke - guitar, vocals
Aaron Parks - piano
Massimo Biolcati - bass
Cafe - percussion
Recorded at Coyote Studios, Brooklyn, NY on December 16-17, 2004.
 
Лог создания рипа
Exact Audio Copy V1.0 beta 3 from 29. August 2011
EAC extraction logfile from 7. December 2014, 4:18
Gretchen Parlato / Gretchen Parlato
Used drive : Optiarc DVD RW AD-5240S Adapter: 0 ID: 2
Read mode : Secure
Utilize accurate stream : Yes
Defeat audio cache : Yes
Make use of C2 pointers : No
Read offset correction : 48
Overread into Lead-In and Lead-Out : No
Fill up missing offset samples with silence : Yes
Delete leading and trailing silent blocks : No
Null samples used in CRC calculations : Yes
Used interface : Installed external ASPI interface
Gap handling : Appended to previous track
Used output format : User Defined Encoder
Selected bitrate : 1024 kBit/s
Quality : High
Add ID3 tag : No
Command line compressor : C:\Program Files\Exact Audio Copy\FLAC\FLAC.EXE
Additional command line options : -8 -V -T "ARTIST=%artist%" -T "TITLE=%title%" -T "ALBUM=%albumtitle%" -T "DATE=%year%" -T "TRACKNUMBER=%tracknr%" -T "GENRE=%genre%" -T "PERFORMER=%albuminterpret%" -T "COMPOSER=%composer%" %haslyrics%--tag-from-file=LYRICS="%lyricsfile%"%haslyrics% -T "ALBUMARTIST=%albumartist%" -T "DISCNUMBER=%cdnumber%" -T "TOTALDISCS=%totalcds%" -T "TOTALTRACKS=%numtracks%" -T "COMMENT=%comment%" %source% -o %dest%
TOC of the extracted CD
Track | Start | Length | Start sector | End sector
---------------------------------------------------------
1 | 0:00.00 | 4:20.61 | 0 | 19560
2 | 4:20.61 | 6:30.36 | 19561 | 48846
3 | 10:51.22 | 5:20.23 | 48847 | 72869
4 | 16:11.45 | 4:27.55 | 72870 | 92949
5 | 20:39.25 | 5:07.42 | 92950 | 116016
6 | 25:46.67 | 3:18.26 | 116017 | 130892
7 | 29:05.18 | 5:42.12 | 130893 | 156554
8 | 34:47.30 | 4:34.04 | 156555 | 177108
Track 1
Filename Z:\# What.cd\Gretchen Parlato - Gretchen Parlato (2005)\Gretchen Parlato - Gretchen Parlato (2005)[FLAC]{20-29628 }\01 - Skylark.wav
Pre-gap length 0:00:02.00
Peak level 76.1 %
Extraction speed 2.3 X
Track quality 100.0 %
Test CRC C373FE3A
Copy CRC C373FE3A
Accurately ripped (confidence 2) [8A7CBE7D] (AR v2)
Copy OK
Track 2
Filename Z:\# What.cd\Gretchen Parlato - Gretchen Parlato (2005)\Gretchen Parlato - Gretchen Parlato (2005)[FLAC]{20-29628 }\02 - Flor De Lis.wav
Pre-gap length 0:00:02.00
Peak level 89.0 %
Extraction speed 2.8 X
Track quality 100.0 %
Test CRC A2D1D049
Copy CRC A2D1D049
Accurately ripped (confidence 2) [B9A3B481] (AR v2)
Copy OK
Track 3
Filename Z:\# What.cd\Gretchen Parlato - Gretchen Parlato (2005)\Gretchen Parlato - Gretchen Parlato (2005)[FLAC]{20-29628 }\03 - Come To Me.wav
Pre-gap length 0:00:02.00
Peak level 99.7 %
Extraction speed 3.0 X
Track quality 100.0 %
Test CRC 653C9FE4
Copy CRC 653C9FE4
Accurately ripped (confidence 2) [500CEBDC] (AR v2)
Copy OK
Track 4
Filename Z:\# What.cd\Gretchen Parlato - Gretchen Parlato (2005)\Gretchen Parlato - Gretchen Parlato (2005)[FLAC]{20-29628 }\04 - Nonvignon.wav
Pre-gap length 0:00:02.00
Peak level 95.6 %
Extraction speed 3.2 X
Track quality 100.0 %
Test CRC 1DE9B90C
Copy CRC 1DE9B90C
Accurately ripped (confidence 2) [98A426D2] (AR v2)
Copy OK
Track 5
Filename Z:\# What.cd\Gretchen Parlato - Gretchen Parlato (2005)\Gretchen Parlato - Gretchen Parlato (2005)[FLAC]{20-29628 }\05 - Ela é Carioca.wav
Pre-gap length 0:00:02.00
Peak level 62.2 %
Extraction speed 3.5 X
Track quality 100.0 %
Test CRC 37599753
Copy CRC 37599753
Accurately ripped (confidence 2) [7E0F87F5] (AR v2)
Copy OK
Track 6
Filename Z:\# What.cd\Gretchen Parlato - Gretchen Parlato (2005)\Gretchen Parlato - Gretchen Parlato (2005)[FLAC]{20-29628 }\06 - Chega De Saudade.wav
Pre-gap length 0:00:02.00
Peak level 100.0 %
Extraction speed 3.5 X
Track quality 100.0 %
Test CRC EA79DBCD
Copy CRC EA79DBCD
Accurately ripped (confidence 2) [69A58F20] (AR v2)
Copy OK
Track 7
Filename Z:\# What.cd\Gretchen Parlato - Gretchen Parlato (2005)\Gretchen Parlato - Gretchen Parlato (2005)[FLAC]{20-29628 }\07 - Benny's Tune.wav
Pre-gap length 0:00:02.00
Peak level 69.5 %
Extraction speed 3.9 X
Track quality 100.0 %
Test CRC 9BBF0BB4
Copy CRC 9BBF0BB4
Accurately ripped (confidence 2) [6BDEADDA] (AR v2)
Copy OK
Track 8
Filename Z:\# What.cd\Gretchen Parlato - Gretchen Parlato (2005)\Gretchen Parlato - Gretchen Parlato (2005)[FLAC]{20-29628 }\08 - Juju,Footprints.wav
Pre-gap length 0:00:02.00
Peak level 97.0 %
Extraction speed 4.0 X
Track quality 100.0 %
Test CRC 8BF5034B
Copy CRC 8BF5034B
Accurately ripped (confidence 2) [F1228FFD] (AR v2)
Copy OK
All tracks accurately ripped
No errors occurred
End of status report
---- CUETools DB Plugin V2.1.4
[CTDB TOCID: fID1KlgHjjhMPBoz9oeVXkHgPsI-] disk not present in database
Submit result: fID1KlgHjjhMPBoz9oeVXkHgPsI- has been uploaded
==== Log checksum B0154DF1335461028836D5633D9B36641BA4A609B88D1A7B5F39F835F41512B4 ====
 
Содержание индексной карты (.CUE)
REM GENRE Jazz
REM DATE 2005
REM DISCID 6D093908
REM COMMENT "ExactAudioCopy v1.0b3"
PERFORMER "Gretchen Parlato"
TITLE "Gretchen Parlato"
FILE "01 - Skylark.wav" WAVE
TRACK 01 AUDIO
TITLE "Skylark"
PERFORMER "Gretchen Parlato"
INDEX 01 00:00:00
TRACK 02 AUDIO
TITLE "Flor de Lis"
PERFORMER "Gretchen Parlato"
INDEX 00 04:18:61
FILE "02 - Flor de Lis.wav" WAVE
INDEX 01 00:00:00
TRACK 03 AUDIO
TITLE "Come to Me"
PERFORMER "Gretchen Parlato"
INDEX 00 06:28:36
FILE "03 - Come to Me.wav" WAVE
INDEX 01 00:00:00
TRACK 04 AUDIO
TITLE "Nonvignon"
PERFORMER "Gretchen Parlato"
INDEX 00 05:18:23
FILE "04 - Nonvignon.wav" WAVE
INDEX 01 00:00:00
TRACK 05 AUDIO
TITLE "Ela e Carioca"
PERFORMER "Gretchen Parlato"
INDEX 00 04:25:55
FILE "05 - Ela e Carioca.wav" WAVE
INDEX 01 00:00:00
TRACK 06 AUDIO
TITLE "Chega de Saudade"
PERFORMER "Gretchen Parlato"
INDEX 00 05:05:42
FILE "06 - Chega de Saudade.wav" WAVE
INDEX 01 00:00:00
TRACK 07 AUDIO
TITLE "Benny's Tune"
PERFORMER "Gretchen Parlato"
INDEX 00 03:16:26
FILE "07 - Benny's Tune.wav" WAVE
INDEX 01 00:00:00
TRACK 08 AUDIO
TITLE "Juju/Footprints"
PERFORMER "Gretchen Parlato"
INDEX 00 05:40:12
FILE "08 - Juju,Footprints.wav" WAVE
INDEX 01 00:00:00
 
Отчет CUETools
[CUETools log; Date: 29.09.2015 0:35:55; Version: 2.1.5]
[CTDB TOCID: fID1KlgHjjhMPBoz9oeVXkHgPsI-] found.
Track | CTDB Status
1 | (2/2) Accurately ripped
2 | (2/2) Accurately ripped
3 | (2/2) Accurately ripped
4 | (2/2) Accurately ripped
5 | (2/2) Accurately ripped
6 | (2/2) Accurately ripped
7 | (2/2) Accurately ripped
8 | (2/2) Accurately ripped
[AccurateRip ID: 000c6ed2-0052685c-6d093908] found.
Track [ CRC | V2 ] Status
01 [8c5cb79e|8a7cbe7d] (04+02/10) Accurately ripped
02 [0e105c61|b9a3b481] (04+02/10) Accurately ripped
03 [2261b3f7|500cebdc] (04+02/10) Accurately ripped
04 [e11b5be8|98a426d2] (04+02/10) Accurately ripped
05 [6251e74e|7e0f87f5] (04+02/10) Accurately ripped
06 [1eb7c23b|69a58f20] (04+02/10) Accurately ripped
07 [5f20bc15|6bdeadda] (04+02/10) Accurately ripped
08 [41f2aad6|f1228ffd] (04+02/10) Accurately ripped
Offsetted by 30:
01 [7a86dee9] (02/10) Accurately ripped
02 [cefc2f55] (02/10) Accurately ripped
03 [913f5a09] (02/10) Accurately ripped
04 [70f67216] (02/10) Accurately ripped
05 [0bb34556] (02/10) Accurately ripped
06 [d1b3c0c7] (02/10) Accurately ripped
07 [d7dc3d63] (02/10) Accurately ripped
08 [dd8213a4] (02/10) Accurately ripped
Track Peak [ CRC32 ] [W/O NULL] [ LOG ]
-- 100,0 [6FF9827F] [5654DD8A]
01 76,1 [C373FE3A] [3FC7866F] CRC32
02 89,0 [A2D1D049] [DFCB4059] CRC32
03 99,7 [653C9FE4] [40DB5E39] CRC32
04 95,6 [1DE9B90C] [1ED91A96] CRC32
05 62,2 [37599753] [3FBEB1AE] CRC32
06 100,0 [EA79DBCD] [D1A9742E] CRC32
07 69,5 [9BBF0BB4] [410FB1E9] CRC32
08 97,0 [8BF5034B] [82F81204] CRC32
 
Об альбоме (сборнике)
With her self-released disc, Gretchen Parlato -- winner of the highly competitive Thelonious Monk International Jazz Vocals Competition in 2004 -- charts an original and beautiful course.
Working with Lionel Loueke, whose wordless vocals and quiet, fingerpicked guitar stylings blend seamlessly with Parlato's voice, she demonstrates a mastery of Brazilian music on a pair of Jobim tunes.
Her vocal riff that opens "Skylark" sets the stage for one of the most appealing versions I've ever heard of that great Hoagy Carmichael song. Along with two tunes by Loueke, with an almost folk feeling, Parlato offers a highly rhythmic version of Bjork's "Come to Me", and puts lyrics to Wayne Shorter's "JuJu/Footprints".
Shorter, as enchanted with Parlato as the likes of Herbie Hancock and Flora Purim, says "There's no one like Gretchen out there." Having seen Parlato weave her understated magic with Loueke in the intimate 55 Bar in Greenwich Village, as well as heard this impressive debut CD, I certainly agree.
19:32
300
Нет комментариев. Ваш будет первым!