Поиск

(Latin Jazz, Bossa Nova) [CD] David Grisman Quintet - Dawganova - 1995, FLAC (tracks+.cue), lossless

(Latin Jazz, Bossa Nova) [CD] David Grisman Quintet - Dawganova - 1995, FLAC (tracks+.cue), lossless
Треклист:
David Grisman Quintet - Dawganova
Жанр: Latin Jazz, Bossa Nova
Носитель: CD
Страна-производитель диска: Канада
Год издания диска: 1995
Издатель (лейбл): Acoustic Disc
Номер по каталогу: ACD-17
Аудио кодек: FLAC (*.flac)
Тип рипа: tracks+.cue
Битрейт аудио: lossless
Продолжительность: 55:33
Источник (релизер): kinda_epic (what)
Наличие сканов в содержимом раздачи: сетевые
Треклист:
01. Dawganova (Grisman) - 6:52
02. Manha de Carnaval (Bonfa) - 7:07
03. Barkley's Bug (Grisman) - 5:39
04. Nature Boy (Ahbez) - 7:51
05. El Cumbanchero (Hernandez) - 4:39
06. Brazilian Breeze (Grisman) - 5:57
07. Tico Tico (Abreu) - 4:31
08. April's Wedding Bossa (Grisman) - 6:45
09. Caliente (Grisman) - 6:12
Состав:
David Grisman - mandolin, mandola
Enrique Coria - guitar
Joe Craven - violin, percussion
Matt Eakle - flute, bass flute
Jim Kerwin - bass
Recorded at Dawg Studios, Mill Valley, CA in September 1994.
 
Лог создания рипа
Exact Audio Copy V0.99 prebeta 5 from 4. May 2009
EAC extraction logfile from 22. September 2010, 18:41
David Grisman Quintet / Dawganova
Used drive : HL-DT-STDVD+-RW GSA-H73N Adapter: 1 ID: 0
Read mode : Secure
Utilize accurate stream : Yes
Defeat audio cache : Yes
Make use of C2 pointers : No
Read offset correction : 102
Overread into Lead-In and Lead-Out : No
Fill up missing offset samples with silence : Yes
Delete leading and trailing silent blocks : No
Null samples used in CRC calculations : Yes
Used interface : Native Win32 interface for Win NT & 2000
Gap handling : Appended to previous track
Used output format : User Defined Encoder
Selected bitrate : 320 kBit/s
Quality : High
Add ID3 tag : No
Command line compressor : C:\Program Files\Exact Audio Copy\Flac\flac.exe
Additional command line options : -V -8 -T "artist=%a" -T "title=%t" -T "album=%g" -T "date=%y" -T "tracknumber=%n" -T "genre=%m" %s
TOC of the extracted CD
Track | Start | Length | Start sector | End sector
---------------------------------------------------------
1 | 0:00.00 | 6:51.52 | 0 | 30876
2 | 6:51.52 | 7:06.68 | 30877 | 62894
3 | 13:58.45 | 5:38.55 | 62895 | 88299
4 | 19:37.25 | 7:51.10 | 88300 | 123634
5 | 27:28.35 | 4:38.70 | 123635 | 144554
6 | 32:07.30 | 5:56.60 | 144555 | 171314
7 | 38:04.15 | 4:30.52 | 171315 | 191616
8 | 42:34.67 | 6:44.70 | 191617 | 221986
9 | 49:19.62 | 6:11.63 | 221987 | 249874
Track 1
Filename C:\Users\Chris\Desktop\01 - Dawganova.wav
Pre-gap length 0:00:02.00
Peak level 94.4 %
Track quality 99.9 %
Test CRC E73596DD
Copy CRC E73596DD
Accurately ripped (confidence 7) [5E661A4C]
Copy OK
Track 2
Filename C:\Users\Chris\Desktop\02 - Manha de Carnaval.wav
Pre-gap length 0:00:01.09
Peak level 95.4 %
Track quality 100.0 %
Test CRC D12BB422
Copy CRC D12BB422
Accurately ripped (confidence 7) [333C3791]
Copy OK
Track 3
Filename C:\Users\Chris\Desktop\03 - Barkley's Bug.wav
Peak level 92.8 %
Track quality 100.0 %
Test CRC 8DA2854B
Copy CRC 8DA2854B
Accurately ripped (confidence 7) [E04A3AD5]
Copy OK
Track 4
Filename C:\Users\Chris\Desktop\04 - Nature Boy.wav
Pre-gap length 0:00:01.44
Peak level 95.9 %
Track quality 100.0 %
Test CRC CACDF978
Copy CRC CACDF978
Accurately ripped (confidence 7) [E6522D0A]
Copy OK
Track 5
Filename C:\Users\Chris\Desktop\05 - El Cumbanchero.wav
Pre-gap length 0:00:01.57
Peak level 90.3 %
Track quality 99.9 %
Test CRC 41942DC3
Copy CRC 41942DC3
Accurately ripped (confidence 7) [8593688A]
Copy OK
Track 6
Filename C:\Users\Chris\Desktop\06 - Brazilian Breeze.wav
Peak level 94.8 %
Track quality 100.0 %
Test CRC E531A713
Copy CRC E531A713
Accurately ripped (confidence 7) [FFC2938D]
Copy OK
Track 7
Filename C:\Users\Chris\Desktop\07 - Tico Tico.wav
Peak level 99.0 %
Track quality 100.0 %
Test CRC C807E73D
Copy CRC C807E73D
Accurately ripped (confidence 7) [D995E279]
Copy OK
Track 8
Filename C:\Users\Chris\Desktop\08 - April's Wedding Bossa.wav
Peak level 97.2 %
Track quality 100.0 %
Test CRC 365D786D
Copy CRC 365D786D
Accurately ripped (confidence 7) [B1D9DDD5]
Copy OK
Track 9
Filename C:\Users\Chris\Desktop\09 - Caliente.wav
Pre-gap length 0:00:01.49
Peak level 99.8 %
Track quality 100.0 %
Test CRC D38223E3
Copy CRC D38223E3
Accurately ripped (confidence 5) [E0981769]
Copy OK
All tracks accurately ripped
No errors occurred
End of status report
 
Содержание индексной карты (.CUE)
REM GENRE Latin
REM DATE 1995
REM DISCID 7F0D0309
REM COMMENT "ExactAudioCopy v0.99pb5"
PERFORMER "David Grisman"
TITLE "Dawganova"
FILE "01 - Dawganova.wav" WAVE
TRACK 01 AUDIO
TITLE "Dawganova"
PERFORMER "David Grisman"
INDEX 01 00:00:00
TRACK 02 AUDIO
TITLE "Manha de Carnaval"
PERFORMER "David Grisman"
INDEX 00 06:50:45
FILE "02 - Manha de Carnaval.wav" WAVE
INDEX 01 00:00:00
FILE "03 - Barkley's Bug.wav" WAVE
TRACK 03 AUDIO
TITLE "Barkley's Bug"
PERFORMER "David Grisman"
INDEX 01 00:00:00
TRACK 04 AUDIO
TITLE "Nature Boy"
PERFORMER "David Grisman"
INDEX 00 05:37:22
FILE "04 - Nature Boy.wav" WAVE
INDEX 01 00:00:00
TRACK 05 AUDIO
TITLE "El Cumbanchero"
PERFORMER "David Grisman"
INDEX 00 07:49:42
FILE "05 - El Cumbanchero.wav" WAVE
INDEX 01 00:00:00
FILE "06 - Brazilian Breeze.wav" WAVE
TRACK 06 AUDIO
TITLE "Brazilian Breeze"
PERFORMER "David Grisman"
INDEX 01 00:00:00
FILE "07 - Tico Tico.wav" WAVE
TRACK 07 AUDIO
TITLE "Tico Tico"
PERFORMER "David Grisman"
INDEX 01 00:00:00
FILE "08 - April's Wedding Bossa.wav" WAVE
TRACK 08 AUDIO
TITLE "April's Wedding Bossa"
PERFORMER "David Grisman"
INDEX 01 00:00:00
TRACK 09 AUDIO
TITLE "Caliente"
PERFORMER "David Grisman"
INDEX 00 06:43:33
FILE "09 - Caliente.wav" WAVE
INDEX 01 00:00:00
 
Отчет CUETools
[CUETools log; Date: 24.11.2014 1:54:41; Version: 2.1.5]
[CTDB TOCID: ZWg9M0tkSwtinZ7o.S76UWnryvI-] found.
Track | CTDB Status
1 | (8/8) Accurately ripped
2 | (8/8) Accurately ripped
3 | (8/8) Accurately ripped
4 | (8/8) Accurately ripped
5 | (8/8) Accurately ripped
6 | (8/8) Accurately ripped
7 | (8/8) Accurately ripped
8 | (8/8) Accurately ripped
9 | (8/8) Accurately ripped
[AccurateRip ID: 00139bc0-008e2e1f-7f0d0309] found.
Track [ CRC | V2 ] Status
01 [5e661a4c|90321669] (11+07/20) Accurately ripped
02 [333c3791|3c0e0c52] (11+07/20) Accurately ripped
03 [e04a3ad5|206fccde] (11+07/20) Accurately ripped
04 [e6522d0a|8678ff53] (11+07/20) Accurately ripped
05 [8593688a|0192a0f2] (11+07/18) Accurately ripped
06 [ffc2938d|1ab8747a] (11+07/20) Accurately ripped
07 [d995e279|4a776f2f] (11+07/18) Accurately ripped
08 [b1d9ddd5|ec35b56c] (11+07/20) Accurately ripped
09 [e0981769|2ec1b0c5] (09+07/18) Accurately ripped
Offsetted by -305:
01 [9b863b28] (02/20) Accurately ripped
02 [a1f5908c] (02/20) Accurately ripped
03 [5482ca52] (02/20) Accurately ripped
04 [8f7c7122] (02/20) Accurately ripped
05 [4b29e187] (00/18) No match (V2 was not tested)
06 [26f0bb9e] (02/20) Accurately ripped
07 [4e153254] (00/18) No match (V2 was not tested)
08 [ca0cefb6] (02/20) Accurately ripped
09 [df7c09dc] (02/18) Accurately ripped
Track Peak [ CRC32 ] [W/O NULL] [ LOG ]
-- 99,8 [61F5E417] [A625E690]
01 94,4 [E73596DD] [E7BD7D55] CRC32
02 95,4 [D12BB422] [A14FFC3B] CRC32
03 92,8 [8DA2854B] [9CCB16BB] CRC32
04 95,9 [CACDF978] [BAEFBD7C] CRC32
05 90,3 [41942DC3] [82E0AB97] CRC32
06 94,8 [E531A713] [39D006AE] CRC32
07 99,0 [C807E73D] [21C59C6D] CRC32
08 97,2 [365D786D] [5A4AB02C] CRC32
09 99,8 [D38223E3] [7A883285] CRC32
 
Review by Stephen Thomas Erlewine
On Dawganova, Grisman and his quintet add Latin and bossa nova rhythms and melodies to their distinctive blend of bluegrass, folk, and jazz; the results are energetic, and usually quite successful.
19:05
277
Нет комментариев. Ваш будет первым!