Поиск

(Latin Jazz, Bossa Nova) Antonio Carlos Jobim — Verve Jazz Masters 13 — 1993, FLAC (image+.cue), lossless

(Latin Jazz, Bossa Nova) Antonio Carlos Jobim — Verve Jazz Masters 13 — 1993, FLAC (image+.cue), lossless
Треклист:
Antonio Carlos Jobim — Verve Jazz Masters 13
Жанр: Latin Jazz, Bossa Nova
Год выпуска диска: 1993
Label: Verve
Аудио кодек: FLAC
Тип рипа: image+.cue
Битрейт аудио: lossless
Продолжительность: 56:33
Трeклист:
01. Corcovado (Quiet Nights Of Quiet Stars) (4:18)
02. Vivo Sonhando (Dreamer) (2:39)
03. So Danco Samba (3:40)
04. Desafinado (Off Key) (2:48)
05. Aguas De Marco (Waters Of March) (3:35)
06. O Grande Amor (5:29)
07. Agua De Beber (2:54)
08. Chovendo Na Roseiro (Double Rainbow) (3:15)
09. O Morro Nao Tem Vez (6:56)
10. Fascinating Rhythm (2:13)
11. Insensatez (How Insensitive) (2:57)
12. Inutil Paisagem (Useless Landscape) (3:12)
13. Favela (3:25)
14. Por Todo Minha Vida (2:06)
15. Triste (2:43)
16. Borzeguim (4:23)
Сканы: 400 dpi
   Автор рипа TürkJazzMania
 
Отчет ЕАС
Exact Audio Copy V0.99 prebeta 5 from 4. May 2009
EAC extraction logfile from 3. February 2010, 7:39
Antonio Carlos Jobim / Verve Jazz Masters 13
Used drive : ASUS CRW-5232AS Adapter: 0 ID: 0
Read mode : Secure
Utilize accurate stream : Yes
Defeat audio cache : Yes
Make use of C2 pointers : No
Read offset correction : 6
Overread into Lead-In and Lead-Out : No
Fill up missing offset samples with silence : Yes
Delete leading and trailing silent blocks : No
Null samples used in CRC calculations : Yes
Used interface : Native Win32 interface for Win NT & 2000
Used output format : User Defined Encoder
Selected bitrate : 1024 kBit/s
Quality : High
Add ID3 tag : No
Command line compressor : C:\Program Files\Exact Audio Copy\FLAC\FLAC.EXE
Additional command line options : -6 -V -T "ARTIST=%a" -T "TITLE=%t" -T "ALBUM=%g" -T "DATE=%y" -T "TRACKNUMBER=%n" -T "GENRE=%m" -T "COMMENT=%e" %s -o %d
TOC of the extracted CD
Track | Start | Length | Start sector | End sector
---------------------------------------------------------
1 | 0:00.33 | 4:17.52 | 33 | 19359
2 | 4:18.10 | 2:39.15 | 19360 | 31299
3 | 6:57.25 | 3:39.70 | 31300 | 47794
4 | 10:37.20 | 2:47.43 | 47795 | 60362
5 | 13:24.63 | 3:35.20 | 60363 | 76507
6 | 17:00.08 | 5:29.05 | 76508 | 101187
7 | 22:29.13 | 2:53.47 | 101188 | 114209
8 | 25:22.60 | 3:14.73 | 114210 | 128832
9 | 28:37.58 | 6:55.47 | 128833 | 160004
10 | 35:33.30 | 2:12.58 | 160005 | 169962
11 | 37:46.13 | 2:57.30 | 169963 | 183267
12 | 40:43.43 | 3:11.70 | 183268 | 197662
13 | 43:55.38 | 3:25.20 | 197663 | 213057
14 | 47:20.58 | 2:06.35 | 213058 | 222542
15 | 49:27.18 | 2:43.02 | 222543 | 234769
16 | 52:10.20 | 4:23.28 | 234770 | 254522
Range status and errors
Selected range
Filename C:\extracts\Antonio Carlos Jobim - Verve Jazz Masters.13\Antonio Carlos Jobim - Verve Jazz Masters 13.wav
Peak level 92.3 %
Range quality 100.0 %
Test CRC ED28D2CE
Copy CRC ED28D2CE
Copy OK
No errors occurred
AccurateRip summary
Track 1 accurately ripped (confidence 8) [8ED8E72C]
Track 2 accurately ripped (confidence 9) [84381D3D]
Track 3 accurately ripped (confidence 9) [5D682D9F]
Track 4 accurately ripped (confidence 9) [714922B2]
Track 5 accurately ripped (confidence 9) [67DE853A]
Track 6 accurately ripped (confidence 9) [CF2B7688]
Track 7 accurately ripped (confidence 9) [79924B9A]
Track 8 accurately ripped (confidence 9) [256A65A8]
Track 9 accurately ripped (confidence 9) [9E6559F9]
Track 10 accurately ripped (confidence 9) [AF90D8C7]
Track 11 accurately ripped (confidence 9) [44006326]
Track 12 accurately ripped (confidence 9) [7D113549]
Track 13 accurately ripped (confidence 9) [0409BA49]
Track 14 accurately ripped (confidence 9) [9B216216]
Track 15 accurately ripped (confidence 9) [8E22B645]
Track 16 accurately ripped (confidence 9) [61D75618]
All tracks accurately ripped
End of status report
   :arrow: Мои раздачи на трекере
По всем вопросам пишите личное сообщение пользователю M0p94ok.
11:12
377
Нет комментариев. Ваш будет первым!