Поиск

(jazz, bossa nova, world fusion) Stan Getz - Bossa Nova [Verve Jazz Masters 53] - 1996, FLAC (tracks+.cue), lossless

Треклист:
Stan Getz
Bossa Nova
[Verve Jazz Masters 53]
Жанр: jazz, bossa nova, world fusion
Год выпуска диска: 1996
Производитель диска: Verve Records / PolyGram Records (314 529 904-2)
Аудио кодек: FLAC
Тип рипа: tracks+.cue + Complete Artwork
Битрейт аудио: lossless
Продолжительность: 01:12:10
Треклист:
01. Corcovado (Quiet Nights of Quiet Stars)
02. Menina Moca
03. Sу Danзo Samba
04. Manha De Carnaval
05. Voce E Eu
06. Samba De Uma Nota Sу (One Note Samba)
07. Doralice
08. Insensatez (How Insensitive)
09. Chega de Saudade (No More Blues)
10. Only Trust Your Heart
11. O Grande Amor
12. Winter Moon
13. Menina Flor
14. Samba Triste
15. Desafinado (Off Key)
16. The Girl From Ipanema
Personnel:
Stan Getz — (tenor saxophone)
Joao Gilberto — (vocals, guitar)
Astrud Gilberto, Maria Toledo — (vocals)
Gary Burton — (vibraphone)
Steve Kuhn, Antonio Carlos Jobim, Chick Corea — (piano)
Gene Byrd — (guitar, bass)
Kenny Burrell, Laurindo Almeida, Charlie Byrd, Luiz Bonfa — (guitar)
Gene Cherico, George Duvivier, Tommy Williams, Keter Betts, Ron Carter, Don Payne — (bass)
Helcio Milito, Dave Bailey, Milton Banana, Joe Hunt, Bill Reichenbach, Buddy Deppenschmidt, Paulo Ferreira, Grady Tate — (drums)
Edison Machado, Luiz Parga, Jose Paulo, Jose Soorez, Jose Carlos — (percussion)
 
log
Exact Audio Copy V0.99 prebeta 4 from 23. January 2008
EAC extraction logfile from 11. February 2009, 21:59
Stan Getz / Bossa Nova
Used drive : PIONEER DVD-RW DVR-109 Adapter: 1 ID: 0
Read mode : Secure
Utilize accurate stream : Yes
Defeat audio cache : Yes
Make use of C2 pointers : No
Read offset correction : 48
Overread into Lead-In and Lead-Out : No
Fill up missing offset samples with silence : Yes
Delete leading and trailing silent blocks : No
Null samples used in CRC calculations : Yes
Used interface : Installed external ASPI interface
Gap handling : Appended to previous track
Used output format : User Defined Encoder
Selected bitrate : 1024 kBit/s
Quality : High
Add ID3 tag : No
Command line compressor : C:\Program Files (x86)\Exact Audio Copy\Flac\flac.exe
Additional command line options : -8 -V -T "ARTIST=%a" -T "TITLE=%t" -T "ALBUM=%g" -T "DATE=%y" -T "TRACKNUMBER=%n" -T "TOTALTRACKS=%x" -T "GENRE=%m" -T "ALBUMARTIST=%v" -T "ALBUM ARTIST=%v" -T "COMMENT=EAC, FLAC -8" %s
TOC of the extracted CD
Track | Start | Length | Start sector | End sector
---------------------------------------------------------
1 | 0:00.00 | 2:31.57 | 0 | 11381
2 | 2:31.57 | 5:42.58 | 11382 | 37089
3 | 8:14.40 | 3:39.67 | 37090 | 53581
4 | 11:54.32 | 5:50.45 | 53582 | 79876
5 | 17:45.02 | 3:28.38 | 79877 | 95514
6 | 21:13.40 | 6:13.30 | 95515 | 123519
7 | 27:26.70 | 2:47.17 | 123520 | 136061
8 | 30:14.12 | 3:23.53 | 136062 | 151339
9 | 33:37.65 | 4:16.60 | 151340 | 170599
10 | 37:54.50 | 4:27.02 | 170600 | 190626
11 | 42:21.52 | 4:44.68 | 190627 | 211994
12 | 47:06.45 | 5:19.47 | 211995 | 235966
13 | 52:26.17 | 4:11.30 | 235967 | 254821
14 | 56:37.47 | 4:47.73 | 254822 | 276419
15 | 61:25.45 | 4:14.27 | 276420 | 295496
16 | 65:39.72 | 6:30.73 | 295497 | 324819
Track 1
Filename J:\Music Torrent\Stan Getz - Bossa Nova (1996) [FLAC] (Verve Jazz Masters 53)\01 - Corcovado (Quiet Nights of Quiet Stars).wav
Pre-gap length 0:00:02.00
Peak level 93.9 %
Track quality 99.9 %
Test CRC 69FC3E71
Copy CRC 69FC3E71
Accurately ripped (confidence 4) [1D782B4A]
Copy OK
Track 2
Filename J:\Music Torrent\Stan Getz - Bossa Nova (1996) [FLAC] (Verve Jazz Masters 53)\02 - Menina Moca.wav
Pre-gap length 0:00:03.12
Peak level 82.7 %
Track quality 100.0 %
Test CRC DD39FC31
Copy CRC DD39FC31
Accurately ripped (confidence 4) [39BF6942]
Copy OK
Track 3
Filename J:\Music Torrent\Stan Getz - Bossa Nova (1996) [FLAC] (Verve Jazz Masters 53)\03 - So Danco Samba.wav
Pre-gap length 0:00:03.10
Peak level 95.5 %
Track quality 100.0 %
Test CRC B14C7D80
Copy CRC B14C7D80
Accurately ripped (confidence 4) [9976308C]
Copy OK
Track 4
Filename J:\Music Torrent\Stan Getz - Bossa Nova (1996) [FLAC] (Verve Jazz Masters 53)\04 - Manha De Carnaval.wav
Pre-gap length 0:00:03.10
Peak level 100.0 %
Track quality 100.0 %
Test CRC 78C76998
Copy CRC 78C76998
Accurately ripped (confidence 4) [6C16FFC6]
Copy OK
Track 5
Filename J:\Music Torrent\Stan Getz - Bossa Nova (1996) [FLAC] (Verve Jazz Masters 53)\05 - Voce E Eu.wav
Pre-gap length 0:00:03.15
Peak level 88.4 %
Track quality 100.0 %
Test CRC E322DD2C
Copy CRC E322DD2C
Accurately ripped (confidence 3) [622279CE]
Copy OK
Track 6
Filename J:\Music Torrent\Stan Getz - Bossa Nova (1996) [FLAC] (Verve Jazz Masters 53)\06 - Samba De Uma Nota So (One Note Samba).wav
Pre-gap length 0:00:03.05
Peak level 96.7 %
Track quality 100.0 %
Test CRC 6468DFC3
Copy CRC 6468DFC3
Accurately ripped (confidence 4) [D3F796AC]
Copy OK
Track 7
Filename J:\Music Torrent\Stan Getz - Bossa Nova (1996) [FLAC] (Verve Jazz Masters 53)\07 - Doralice.wav
Pre-gap length 0:00:03.13
Peak level 83.3 %
Track quality 100.0 %
Test CRC D1EE7D7D
Copy CRC D1EE7D7D
Accurately ripped (confidence 4) [6D927286]
Copy OK
Track 8
Filename J:\Music Torrent\Stan Getz - Bossa Nova (1996) [FLAC] (Verve Jazz Masters 53)\08 - Insensatez (How Insensitive).wav
Pre-gap length 0:00:03.15
Peak level 94.8 %
Track quality 100.0 %
Test CRC 790692AD
Copy CRC 790692AD
Accurately ripped (confidence 4) [20A2492D]
Copy OK
Track 9
Filename J:\Music Torrent\Stan Getz - Bossa Nova (1996) [FLAC] (Verve Jazz Masters 53)\09 - Chega de Saudade (No More Blues).wav
Pre-gap length 0:00:03.03
Peak level 100.0 %
Track quality 100.0 %
Test CRC C806FA4B
Copy CRC C806FA4B
Accurately ripped (confidence 4) [07300BC2]
Copy OK
Track 10
Filename J:\Music Torrent\Stan Getz - Bossa Nova (1996) [FLAC] (Verve Jazz Masters 53)\10 - Only Trust Your Heart.wav
Pre-gap length 0:00:02.43
Peak level 89.5 %
Track quality 100.0 %
Test CRC 93EC39DB
Copy CRC 93EC39DB
Accurately ripped (confidence 4) [76C59DE3]
Copy OK
Track 11
Filename J:\Music Torrent\Stan Getz - Bossa Nova (1996) [FLAC] (Verve Jazz Masters 53)\11 - O Grande Amor.wav
Pre-gap length 0:00:03.17
Peak level 100.0 %
Track quality 99.9 %
Test CRC 06B2F82F
Copy CRC 06B2F82F
Accurately ripped (confidence 4) [07F72AA1]
Copy OK
Track 12
Filename J:\Music Torrent\Stan Getz - Bossa Nova (1996) [FLAC] (Verve Jazz Masters 53)\12 - Winter Moon.wav
Pre-gap length 0:00:03.10
Peak level 75.8 %
Track quality 100.0 %
Test CRC 4CC1494C
Copy CRC 4CC1494C
Accurately ripped (confidence 4) [0CA55E0C]
Copy OK
Track 13
Filename J:\Music Torrent\Stan Getz - Bossa Nova (1996) [FLAC] (Verve Jazz Masters 53)\13 - Menina Flor.wav
Pre-gap length 0:00:03.12
Peak level 91.3 %
Track quality 99.9 %
Test CRC 7A63F213
Copy CRC 7A63F213
Accurately ripped (confidence 4) [33A14D1A]
Copy OK
Track 14
Filename J:\Music Torrent\Stan Getz - Bossa Nova (1996) [FLAC] (Verve Jazz Masters 53)\14 - Samba Triste.wav
Pre-gap length 0:00:03.07
Peak level 94.8 %
Track quality 100.0 %
Test CRC 0B655973
Copy CRC 0B655973
Accurately ripped (confidence 4) [F488B559]
Copy OK
Track 15
Filename J:\Music Torrent\Stan Getz - Bossa Nova (1996) [FLAC] (Verve Jazz Masters 53)\15 - Desafinado (Off Key).wav
Pre-gap length 0:00:03.15
Peak level 88.2 %
Track quality 99.9 %
Test CRC 99497EAB
Copy CRC 99497EAB
Accurately ripped (confidence 4) [D9E9E631]
Copy OK
Track 16
Filename J:\Music Torrent\Stan Getz - Bossa Nova (1996) [FLAC] (Verve Jazz Masters 53)\16 - The Girl From Ipanema.wav
Pre-gap length 0:00:03.15
Peak level 98.8 %
Track quality 100.0 %
Test CRC 22453249
Copy CRC 22453249
Accurately ripped (confidence 3) [481480AB]
Copy OK
All tracks accurately ripped
No errors occurred
End of status report
 
.cue
REM GENRE "Bossa Nova"
REM DATE 1996
REM DISCID FC10EA10
REM COMMENT "ExactAudioCopy v0.99pb4"
PERFORMER "Stan Getz"
TITLE "Bossa Nova"
FILE "01 - Corcovado (Quiet Nights of Quiet Stars).wav" WAVE
TRACK 01 AUDIO
TITLE "Corcovado (Quiet Nights of Quiet Stars)"
PERFORMER "Stan Getz"
INDEX 01 00:00:00
TRACK 02 AUDIO
TITLE "Menina Moca"
PERFORMER "Stan Getz"
INDEX 00 02:28:45
FILE "02 - Menina Moca.wav" WAVE
INDEX 01 00:00:00
TRACK 03 AUDIO
TITLE "So Danco Samba"
PERFORMER "Stan Getz"
INDEX 00 05:39:48
FILE "03 - So Danco Samba.wav" WAVE
INDEX 01 00:00:00
TRACK 04 AUDIO
TITLE "Manha De Carnaval"
PERFORMER "Stan Getz"
INDEX 00 03:36:57
FILE "04 - Manha De Carnaval.wav" WAVE
INDEX 01 00:00:00
TRACK 05 AUDIO
TITLE "Voce E Eu"
PERFORMER "Stan Getz"
INDEX 00 05:47:30
FILE "05 - Voce E Eu.wav" WAVE
INDEX 01 00:00:00
TRACK 06 AUDIO
TITLE "Samba De Uma Nota So (One Note Samba)"
PERFORMER "Stan Getz"
INDEX 00 03:25:33
FILE "06 - Samba De Uma Nota So (One Note Samba).wav" WAVE
INDEX 01 00:00:00
TRACK 07 AUDIO
TITLE "Doralice"
PERFORMER "Stan Getz"
INDEX 00 06:10:17
FILE "07 - Doralice.wav" WAVE
INDEX 01 00:00:00
TRACK 08 AUDIO
TITLE "Insensatez (How Insensitive)"
PERFORMER "Stan Getz"
INDEX 00 02:44:02
FILE "08 - Insensatez (How Insensitive).wav" WAVE
INDEX 01 00:00:00
TRACK 09 AUDIO
TITLE "Chega de Saudade (No More Blues)"
PERFORMER "Stan Getz"
INDEX 00 03:20:50
FILE "09 - Chega de Saudade (No More Blues).wav" WAVE
INDEX 01 00:00:00
TRACK 10 AUDIO
TITLE "Only Trust Your Heart"
PERFORMER "Stan Getz"
INDEX 00 04:14:17
FILE "10 - Only Trust Your Heart.wav" WAVE
INDEX 01 00:00:00
TRACK 11 AUDIO
TITLE "O Grande Amor"
PERFORMER "Stan Getz"
INDEX 00 04:23:60
FILE "11 - O Grande Amor.wav" WAVE
INDEX 01 00:00:00
TRACK 12 AUDIO
TITLE "Winter Moon"
PERFORMER "Stan Getz"
INDEX 00 04:41:58
FILE "12 - Winter Moon.wav" WAVE
INDEX 01 00:00:00
TRACK 13 AUDIO
TITLE "Menina Flor"
PERFORMER "Stan Getz"
INDEX 00 05:16:35
FILE "13 - Menina Flor.wav" WAVE
INDEX 01 00:00:00
TRACK 14 AUDIO
TITLE "Samba Triste"
PERFORMER "Stan Getz"
INDEX 00 04:08:23
FILE "14 - Samba Triste.wav" WAVE
INDEX 01 00:00:00
TRACK 15 AUDIO
TITLE "Desafinado (Off Key)"
PERFORMER "Stan Getz"
INDEX 00 04:44:58
FILE "15 - Desafinado (Off Key).wav" WAVE
INDEX 01 00:00:00
TRACK 16 AUDIO
TITLE "The Girl From Ipanema"
PERFORMER "Stan Getz"
INDEX 00 04:11:12
FILE "16 - The Girl From Ipanema.wav" WAVE
INDEX 01 00:00:00


Диск взят с другого трекера
17:13
652
Нет комментариев. Ваш будет первым!