Поиск

(Latin jazz, Big Band) [WEB] Tito Puente - Malibu Beat - 2015, FLAC (tracks), lossless

(Latin jazz, Big Band) [WEB] Tito Puente - Malibu Beat - 2015, FLAC (tracks), lossless
Треклист:
Tito Puente - Malibu Beat Жанр: Latin jazz, Big Band
Носитель: WEB
Год издания: 2015
Издатель (лейбл): Harlem Jazz Records
Аудиокодек: FLAC (*.flac)
Тип рипа: tracks
Битрейт аудио: lossless
Продолжительность: 28:26
Наличие сканов в содержимом раздачи: нет

Треклист:
01. Malibu Beat (2:32)
02. Carioca (2:16)
03. Flying Down To Rio (2:18)
04. Night Beat (2:59)
05. Emerald Beach (3:34)
06. Midnight Lament (Minor Moods) (3:11)
07. Night Hawk (Coconut And Rice) (2:34)
08. The Late, Late Scene (2:54)
09. Live A Little (Let's Face It) (2:56)
10. The Floozie (3:11)
 
 
Динамический диапазон
foobar2000 1.1.6 / Dynamic Range Meter 1.1.1
log date: 2015-01-21 18:25:28
--------------------------------------------------------------------------------
Analyzed: Tito Puente / Malibu Beat
--------------------------------------------------------------------------------
DR Peak RMS Duration Track
--------------------------------------------------------------------------------
DR8 0.00 dB -9.30 dB 2:32 01-Malibu Beat
DR9 -0.24 dB -11.92 dB 2:16 02-Carioca
DR9 -0.13 dB -10.18 dB 2:18 03-Flying Down To Rio
DR9 -0.23 dB -10.64 dB 2:59 04-Night Beat
DR9 -0.22 dB -10.60 dB 3:34 05-Emerald Beach
DR12 -0.66 dB -16.42 dB 3:11 06-Midnight Lament (Minor Moods)
DR8 0.00 dB -10.32 dB 2:34 07-Night Hawk (Coconut And Rice)
DR11 -0.25 dB -13.79 dB 2:54 08-The Late, Late Scene
DR11 -0.24 dB -12.22 dB 2:56 09-Live A Little (Let's Face It)
DR12 -0.27 dB -14.76 dB 3:11 10-The Floozie
--------------------------------------------------------------------------------
Number of tracks: 10
Official DR value: DR10
Samplerate: 44100 Hz
Channels: 2
Bits per sample: 16
Bitrate: 897 kbps
Codec: FLAC
================================================================================
 
Лог проверки качества
AUDIOCHECKER v2.0 beta (build 457) - by Dester - opdester@freemail.hu
~~~~~~~~~~~~~~~~~~~~~~~~~~~~~~~~~~
-=== DO NOT EDIT THIS FILE! ===-
Path: ...\2015. Tito Puente - Malibu Beat
01 -=- 01. Malibu Beat.flac -=- CDDA (100%)
02 -=- 02. Carioca.flac -=- CDDA (100%)
03 -=- 03. Flying Down To Rio.flac -=- CDDA (99%)
04 -=- 04. Night Beat.flac -=- CDDA (100%)
05 -=- 05. Emerald Beach.flac -=- CDDA (100%)
06 -=- 06. Midnight Lament (Minor Moods).flac -=- CDDA (100%)
07 -=- 07. Night Hawk (Coconut And Rice).flac -=- CDDA (100%)
08 -=- 08. The Late, Late Scene.flac -=- CDDA (100%)
09 -=- 09. Live A Little (Let's Face It).flac -=- CDDA (100%)
10 -=- 10. The Floozie.flac -=- CDDA (100%)
Summary 99,90% CDDA
75287332
16:33
318
Нет комментариев. Ваш будет первым!