Поиск

(Latin jazz, Big Band) [CD] Tito Puente - Dance Mania {Legacy Edition Vols. 1&2} - 2009, FLAC (tracks+.cue), lossless

(Latin jazz, Big Band) [CD] Tito Puente - Dance Mania {Legacy Edition Vols. 1&2} - 2009, FLAC (tracks+.cue), lossless
Треклист:
Tito Puente - Dance Mania {Legacy Edition Vols. 1&2}

Жанр: Latin jazz, Big Band | Носитель: CD
Год издания: 2009 | Издатель (лейбл): RCA/Legacy | Номер по каталогу: 88697 44710 2
Аудиокодек: FLAC (*.flac) | Тип рипа: tracks+.cue | Битрейт аудио: lossless
Продолжительность: 68:29 / 65:30 | Rip by jlgt
Наличие сканов в содержимом раздачи: да 
 
 
Disc 1 • Dance Mania
Треклист:
01. El Cayuco (2:37)
02. Complicacion (3:24)
03. 3-D Mambo (2:27)
04. Llego Mijan (3:14)
05. Cuando Te Vea (4:16)
06. Hong Kong Mambo (3:48)
07. Mambo Gozon (2:48)
08. Mi Chiquita Quiere Bembe (3:57)
09. Varsity Drag Mambo (2:53)
10. Estoy Siempre Junto A Ti (3:14)
11. Agua Limpia Todo (2:56)
12. Saca Tu Mujer (3:08)
13. El Cayuco (Outtake) (2:38)
14. Estoy Siempre Junto A Ti (Outtake) (2:44)
15. Mambozooka (2:51)
16. Havana After Dark (2:51)
17. Cual Es la Idea (3:20)
18. Tito Guajira (2:39)
19. Yambeque (3:46)
20. Son De La Loma (2:07)
21. Guaririambo (3:28)
22. Pa' Los Rumberos (3:22)
 
 
Лог создания рипа
Exact Audio Copy V1.0 beta 2 from 29. April 2011
EAC extraction logfile from 10. December 2011, 4:12
Tito Puente / Dance Mania (Legacy Edition CD1)
Used drive : PLEXTOR DVDR PX-L890SA Adapter: 2 ID: 1
Read mode : Secure
Utilize accurate stream : Yes
Defeat audio cache : Yes
Make use of C2 pointers : No
Read offset correction : 6
Overread into Lead-In and Lead-Out : No
Fill up missing offset samples with silence : Yes
Delete leading and trailing silent blocks : No
Null samples used in CRC calculations : Yes
Used interface : Native Win32 interface for Win NT & 2000
Gap handling : Appended to previous track
Used output format : User Defined Encoder
Selected bitrate : 256 kBit/s
Quality : High
Add ID3 tag : No
Command line compressor : C:\Program Files (x86)\Exact Audio Copy\FLAC\FLAC.EXE
Additional command line options : -8 -V -T "ARTIST=%artist%" -T "TITLE=%title%" -T "ALBUM=%albumtitle%" -T "DATE=%year%" -T "TRACKNUMBER=%tracknr%" -T "TOTALTRACKS=%numtracks%" -T "GENRE=%genre%" -T "ALBUMARTIST=%albumartist%" -T "ALBUM ARTIST=%albumartist%
TOC of the extracted CD
Track | Start | Length | Start sector | End sector
---------------------------------------------------------
1 | 0:00.00 | 2:37.17 | 0 | 11791
2 | 2:37.17 | 3:23.45 | 11792 | 27061
3 | 6:00.62 | 2:27.00 | 27062 | 38086
4 | 8:27.62 | 3:14.04 | 38087 | 52640
5 | 11:41.66 | 4:16.12 | 52641 | 71852
6 | 15:58.03 | 3:48.13 | 71853 | 88965
7 | 19:46.16 | 2:48.30 | 88966 | 101595
8 | 22:34.46 | 3:57.26 | 101596 | 119396
9 | 26:31.72 | 2:52.39 | 119397 | 132335
10 | 29:24.36 | 3:14.02 | 132336 | 146887
11 | 32:38.38 | 2:56.24 | 146888 | 160111
12 | 35:34.62 | 3:07.43 | 160112 | 174179
13 | 38:42.30 | 2:37.55 | 174180 | 186009
14 | 41:20.10 | 2:44.36 | 186010 | 198345
15 | 44:04.46 | 2:51.20 | 198346 | 211190
16 | 46:55.66 | 2:50.73 | 211191 | 224013
17 | 49:46.64 | 3:20.19 | 224014 | 239032
18 | 53:07.08 | 2:38.44 | 239033 | 250926
19 | 55:45.52 | 3:46.33 | 250927 | 267909
20 | 59:32.10 | 2:07.08 | 267910 | 277442
21 | 61:39.18 | 3:27.64 | 277443 | 293031
22 | 65:07.07 | 3:21.40 | 293032 | 308146
Track 1
Filename F:\Flac Rips\01 - El Cayuco.wav
Pre-gap length 0:00:02.00
Peak level 96.8 %
Extraction speed 3.5 X
Track quality 100.0 %
Test CRC BAA1742A
Copy CRC BAA1742A
Accurately ripped (confidence 10) [A7251C12] (AR v1)
Copy OK
Track 2
Filename F:\Flac Rips\02 - Complicacion.wav
Pre-gap length 0:00:00.57
Peak level 99.0 %
Extraction speed 4.0 X
Track quality 100.0 %
Test CRC 559C4330
Copy CRC 559C4330
Accurately ripped (confidence 11) [93DB785E] (AR v1)
Copy OK
Track 3
Filename F:\Flac Rips\03 - 3-D Mambo.wav
Pre-gap length 0:00:01.21
Peak level 91.9 %
Extraction speed 4.0 X
Track quality 100.0 %
Test CRC 8BAD8935
Copy CRC 8BAD8935
Accurately ripped (confidence 11) [407C0889] (AR v1)
Copy OK
Track 4
Filename F:\Flac Rips\04 - Llego Mijan.wav
Pre-gap length 0:00:02.27
Peak level 99.4 %
Extraction speed 4.4 X
Track quality 100.0 %
Test CRC BCB19515
Copy CRC BCB19515
Accurately ripped (confidence 11) [BDE117CC] (AR v1)
Copy OK
Track 5
Filename F:\Flac Rips\05 - Cuando Te Vea.wav
Pre-gap length 0:00:00.63
Peak level 99.4 %
Extraction speed 4.9 X
Track quality 100.0 %
Test CRC D0BCB641
Copy CRC D0BCB641
Accurately ripped (confidence 11) [83B7CE9A] (AR v1)
Copy OK
Track 6
Filename F:\Flac Rips\06 - Hong Kong Mambo.wav
Pre-gap length 0:00:01.52
Peak level 95.4 %
Extraction speed 5.1 X
Track quality 100.0 %
Test CRC 147ED414
Copy CRC 147ED414
Accurately ripped (confidence 11) [B40D1E5D] (AR v1)
Copy OK
Track 7
Filename F:\Flac Rips\07 - Mambo Gozon.wav
Pre-gap length 0:00:01.53
Peak level 95.8 %
Extraction speed 5.1 X
Track quality 100.0 %
Test CRC F31EA5CF
Copy CRC F31EA5CF
Accurately ripped (confidence 11) [373B7286] (AR v1)
Copy OK
Track 8
Filename F:\Flac Rips\08 - Mi Chiquita Quiere Bembe.wav
Pre-gap length 0:00:01.14
Peak level 100.0 %
Extraction speed 4.5 X
Track quality 99.9 %
Test CRC 71FA0DA2
Copy CRC 71FA0DA2
Accurately ripped (confidence 11) [6E5BBA91] (AR v1)
Copy OK
Track 9
Filename F:\Flac Rips\09 - Varsity Drag Mambo.wav
Pre-gap length 0:00:00.40
Peak level 95.5 %
Extraction speed 5.6 X
Track quality 100.0 %
Test CRC 4B570BEE
Copy CRC 4B570BEE
Accurately ripped (confidence 11) [4432CA4C] (AR v1)
Copy OK
Track 10
Filename F:\Flac Rips\10 - Estoy Siempre Junto A Ti.wav
Pre-gap length 0:00:00.55
Peak level 97.6 %
Extraction speed 5.8 X
Track quality 100.0 %
Test CRC 32A5422B
Copy CRC 32A5422B
Accurately ripped (confidence 11) [7B53619D] (AR v1)
Copy OK
Track 11
Filename F:\Flac Rips\11 - Agua Limpia Todo.wav
Pre-gap length 0:00:01.54
Peak level 93.4 %
Extraction speed 5.9 X
Track quality 100.0 %
Test CRC 6AB9F0D2
Copy CRC 6AB9F0D2
Accurately ripped (confidence 11) [0E77E17A] (AR v1)
Copy OK
Track 12
Filename F:\Flac Rips\12 - Saca Tu Mujer.wav
Pre-gap length 0:00:00.37
Peak level 95.5 %
Extraction speed 4.6 X
Track quality 99.9 %
Test CRC 8E37C654
Copy CRC 8E37C654
Accurately ripped (confidence 11) [E4F48C45] (AR v1)
Copy OK
Track 13
Filename F:\Flac Rips\13 - El Cayuco (Outtake).wav
Pre-gap length 0:00:01.14
Peak level 100.0 %
Extraction speed 6.1 X
Track quality 100.0 %
Test CRC F9FE0902
Copy CRC F9FE0902
Accurately ripped (confidence 11) [470C0ABA] (AR v1)
Copy OK
Track 14
Filename F:\Flac Rips\14 - Estoy Siempre Junto A Ti (Outtake).wav
Pre-gap length 0:00:00.23
Peak level 100.0 %
Extraction speed 6.3 X
Track quality 100.0 %
Test CRC 06C054F7
Copy CRC 06C054F7
Accurately ripped (confidence 11) [0466CE10] (AR v1)
Copy OK
Track 15
Filename F:\Flac Rips\15 - Mambozooka.wav
Pre-gap length 0:00:01.13
Peak level 66.6 %
Extraction speed 6.4 X
Track quality 100.0 %
Test CRC 9B0470DD
Copy CRC 9B0470DD
Accurately ripped (confidence 11) [C8809813] (AR v1)
Copy OK
Track 16
Filename F:\Flac Rips\16 - Havana After Dark.wav
Pre-gap length 0:00:00.38
Peak level 69.8 %
Extraction speed 4.9 X
Track quality 99.9 %
Test CRC 4833AC61
Copy CRC 4833AC61
Accurately ripped (confidence 11) [AC010017] (AR v1)
Copy OK
Track 17
Filename F:\Flac Rips\17 - Cual Es la Idea.wav
Pre-gap length 0:00:01.09
Peak level 70.6 %
Extraction speed 6.9 X
Track quality 100.0 %
Test CRC 36023BBC
Copy CRC 36023BBC
Accurately ripped (confidence 11) [C4673E8B] (AR v1)
Copy OK
Track 18
Filename F:\Flac Rips\18 - Tito Guajira.wav
Pre-gap length 0:00:00.71
Peak level 63.3 %
Extraction speed 6.8 X
Track quality 100.0 %
Test CRC 4DB957D6
Copy CRC 4DB957D6
Accurately ripped (confidence 11) [9A642378] (AR v1)
Copy OK
Track 19
Filename F:\Flac Rips\19 - Yambeque.wav
Pre-gap length 0:00:00.71
Peak level 70.1 %
Extraction speed 7.2 X
Track quality 100.0 %
Test CRC 52328F65
Copy CRC 52328F65
Accurately ripped (confidence 11) [D8125AC2] (AR v1)
Copy OK
Track 20
Filename F:\Flac Rips\20 - Son De La Loma.wav
Pre-gap length 0:00:01.11
Peak level 67.5 %
Extraction speed 4.6 X
Track quality 99.9 %
Test CRC 7AEC1DA6
Copy CRC 7AEC1DA6
Accurately ripped (confidence 11) [48F56175] (AR v1)
Copy OK
Track 21
Filename F:\Flac Rips\21 - Guaririambo.wav
Pre-gap length 0:00:00.60
Peak level 71.4 %
Extraction speed 7.3 X
Track quality 100.0 %
Test CRC 239D40D2
Copy CRC 239D40D2
Accurately ripped (confidence 11) [F1703997] (AR v1)
Copy OK
Track 22
Filename F:\Flac Rips\22 - Pa' Los Rumberos.wav
Pre-gap length 0:00:01.45
Peak level 70.7 %
Extraction speed 5.9 X
Track quality 99.9 %
Test CRC 155F8A5A
Copy CRC 155F8A5A
Accurately ripped (confidence 11) [B8F6C451] (AR v1)
Copy OK
All tracks accurately ripped
No errors occurred
End of status report
==== Log checksum E53A830235CEEE0A8DC7ABE32D04B9CD322B1C127B44B8B605F6B9AFC85D35E5 ====
 
Содержание индексной карты (.CUE)
REM GENRE Latin
REM DATE 1958
REM DISCID 5A100C16
REM COMMENT "ExactAudioCopy v1.0b2"
PERFORMER "Tito Puente"
TITLE "Dance Mania (Legacy Edition CD1)"
FILE "01 - El Cayuco.wav" WAVE
TRACK 01 AUDIO
TITLE "El Cayuco"
PERFORMER "Tito Puente"
INDEX 01 00:00:00
TRACK 02 AUDIO
TITLE "Complicacion"
PERFORMER "Tito Puente"
INDEX 00 02:36:35
FILE "02 - Complicacion.wav" WAVE
INDEX 01 00:00:00
TRACK 03 AUDIO
TITLE "3-D Mambo"
PERFORMER "Tito Puente"
INDEX 00 03:22:24
FILE "03 - 3-D Mambo.wav" WAVE
INDEX 01 00:00:00
TRACK 04 AUDIO
TITLE "Llego Mijan"
PERFORMER "Tito Puente"
INDEX 00 02:24:48
FILE "04 - Llego Mijan.wav" WAVE
INDEX 01 00:00:00
TRACK 05 AUDIO
TITLE "Cuando Te Vea"
PERFORMER "Tito Puente"
INDEX 00 03:13:16
FILE "05 - Cuando Te Vea.wav" WAVE
INDEX 01 00:00:00
TRACK 06 AUDIO
TITLE "Hong Kong Mambo"
PERFORMER "Tito Puente"
INDEX 00 04:14:35
FILE "06 - Hong Kong Mambo.wav" WAVE
INDEX 01 00:00:00
TRACK 07 AUDIO
TITLE "Mambo Gozon"
PERFORMER "Tito Puente"
INDEX 00 03:46:35
FILE "07 - Mambo Gozon.wav" WAVE
INDEX 01 00:00:00
TRACK 08 AUDIO
TITLE "Mi Chiquita Quiere Bembe"
PERFORMER "Tito Puente"
INDEX 00 02:47:16
FILE "08 - Mi Chiquita Quiere Bembe.wav" WAVE
INDEX 01 00:00:00
TRACK 09 AUDIO
TITLE "Varsity Drag Mambo"
PERFORMER "Tito Puente"
INDEX 00 03:56:61
FILE "09 - Varsity Drag Mambo.wav" WAVE
INDEX 01 00:00:00
TRACK 10 AUDIO
TITLE "Estoy Siempre Junto A Ti"
PERFORMER "Tito Puente"
INDEX 00 02:51:59
FILE "10 - Estoy Siempre Junto A Ti.wav" WAVE
INDEX 01 00:00:00
TRACK 11 AUDIO
TITLE "Agua Limpia Todo"
PERFORMER "Tito Puente"
INDEX 00 03:12:23
FILE "11 - Agua Limpia Todo.wav" WAVE
INDEX 01 00:00:00
TRACK 12 AUDIO
TITLE "Saca Tu Mujer"
PERFORMER "Tito Puente"
INDEX 00 02:55:62
FILE "12 - Saca Tu Mujer.wav" WAVE
INDEX 01 00:00:00
TRACK 13 AUDIO
TITLE "El Cayuco (Outtake)"
PERFORMER "Tito Puente"
INDEX 00 03:06:29
FILE "13 - El Cayuco (Outtake).wav" WAVE
INDEX 01 00:00:00
TRACK 14 AUDIO
TITLE "Estoy Siempre Junto A Ti (Outtake)"
PERFORMER "Tito Puente"
INDEX 00 02:37:32
FILE "14 - Estoy Siempre Junto A Ti (Outtake).wav" WAVE
INDEX 01 00:00:00
TRACK 15 AUDIO
TITLE "Mambozooka"
PERFORMER "Tito Puente"
INDEX 00 02:43:23
FILE "15 - Mambozooka.wav" WAVE
INDEX 01 00:00:00
TRACK 16 AUDIO
TITLE "Havana After Dark"
PERFORMER "Tito Puente"
INDEX 00 02:50:57
FILE "16 - Havana After Dark.wav" WAVE
INDEX 01 00:00:00
TRACK 17 AUDIO
TITLE "Cual Es la Idea"
PERFORMER "Tito Puente"
INDEX 00 02:49:64
FILE "17 - Cual Es la Idea.wav" WAVE
INDEX 01 00:00:00
TRACK 18 AUDIO
TITLE "Tito Guajira"
PERFORMER "Tito Puente"
INDEX 00 03:19:23
FILE "18 - Tito Guajira.wav" WAVE
INDEX 01 00:00:00
TRACK 19 AUDIO
TITLE "Yambeque"
PERFORMER "Tito Puente"
INDEX 00 02:37:48
FILE "19 - Yambeque.wav" WAVE
INDEX 01 00:00:00
TRACK 20 AUDIO
TITLE "Son De La Loma"
PERFORMER "Tito Puente"
INDEX 00 03:45:22
FILE "20 - Son De La Loma.wav" WAVE
INDEX 01 00:00:00
TRACK 21 AUDIO
TITLE "Guaririambo"
PERFORMER "Tito Puente"
INDEX 00 02:06:23
FILE "21 - Guaririambo.wav" WAVE
INDEX 01 00:00:00
TRACK 22 AUDIO
TITLE "Pa' Los Rumberos"
PERFORMER "Tito Puente"
INDEX 00 03:26:19
FILE "22 - Pa' Los Rumberos.wav" WAVE
INDEX 01 00:00:00
 
Disc 2 • Dance Mania Vol. 2
Треклист:
01. A Gozar Timbero (3:05)
02. Si Te Contara (2:54)
03. Separala Tambien (3:14)
04. Caonao (2:32)
05. Una Mujer (2:26)
06. Baila Como Es (2:49)
07. Dance Mania (3:14)
08. Porque Te Perdi (2:01)
09. Guancona (2:41)
10. Son Guacha (2:42)
11. Con Sandunga (3:07)
12. Cua Cua (3:03)
13. Si Te Contara (Outtake) (2:45)
14. A Gozar Timbero (Outtake) (3:07)
15. Una Mujer (Outtake) (3:47)
16. Chanchullo (2:30)
17. Guaguanco (2:32)
18. Cha-Con-Cha (3:04)
19. El Bajo (3:19)
20. Suave Asi (2:31)
21. Cha Cha Son (3:04)
22. Delisse (2:15)
23. El Palo (2:45)
 
 
Лог создания рипа
Exact Audio Copy V1.0 beta 2 from 29. April 2011
EAC extraction logfile from 10. December 2011, 4:58
Tito Puente / Dance Mania Vol 2 (Legacy Edition CD2)
Used drive : PLEXTOR DVDR PX-L890SA Adapter: 2 ID: 1
Read mode : Secure
Utilize accurate stream : Yes
Defeat audio cache : Yes
Make use of C2 pointers : No
Read offset correction : 6
Overread into Lead-In and Lead-Out : No
Fill up missing offset samples with silence : Yes
Delete leading and trailing silent blocks : No
Null samples used in CRC calculations : Yes
Used interface : Native Win32 interface for Win NT & 2000
Gap handling : Appended to previous track
Used output format : User Defined Encoder
Selected bitrate : 256 kBit/s
Quality : High
Add ID3 tag : No
Command line compressor : C:\Program Files (x86)\Exact Audio Copy\FLAC\FLAC.EXE
Additional command line options : -8 -V -T "ARTIST=%artist%" -T "TITLE=%title%" -T "ALBUM=%albumtitle%" -T "DATE=%year%" -T "TRACKNUMBER=%tracknr%" -T "TOTALTRACKS=%numtracks%" -T "GENRE=%genre%" -T "ALBUMARTIST=%albumartist%" -T "ALBUM ARTIST=%albumartist%
TOC of the extracted CD
Track | Start | Length | Start sector | End sector
---------------------------------------------------------
1 | 0:00.00 | 3:05.32 | 0 | 13906
2 | 3:05.32 | 2:54.05 | 13907 | 26961
3 | 5:59.37 | 3:13.55 | 26962 | 41491
4 | 9:13.17 | 2:32.27 | 41492 | 52918
5 | 11:45.44 | 2:26.03 | 52919 | 63871
6 | 14:11.47 | 2:48.70 | 63872 | 76541
7 | 17:00.42 | 3:14.34 | 76542 | 91125
8 | 20:15.01 | 2:01.27 | 91126 | 100227
9 | 22:16.28 | 2:40.62 | 100228 | 112289
10 | 24:57.15 | 2:41.71 | 112290 | 124435
11 | 27:39.11 | 3:06.63 | 124436 | 138448
12 | 30:45.74 | 3:02.47 | 138449 | 152145
13 | 33:48.46 | 2:45.25 | 152146 | 164545
14 | 36:33.71 | 3:06.60 | 164546 | 178555
15 | 39:40.56 | 3:47.28 | 178556 | 195608
16 | 43:28.09 | 2:30.15 | 195609 | 206873
17 | 45:58.24 | 2:31.70 | 206874 | 218268
18 | 48:30.19 | 3:04.08 | 218269 | 232076
19 | 51:34.27 | 3:19.18 | 232077 | 247019
20 | 54:53.45 | 2:31.15 | 247020 | 258359
21 | 57:24.60 | 3:04.34 | 258360 | 272193
22 | 60:29.19 | 2:15.10 | 272194 | 282328
23 | 62:44.29 | 2:45.10 | 282329 | 294713
Track 1
Filename F:\Flac Rips\01 - A Gozar Timbero.wav
Pre-gap length 0:00:02.00
Peak level 71.6 %
Extraction speed 3.6 X
Track quality 100.0 %
Test CRC 4B808107
Copy CRC 4B808107
Accurately ripped (confidence 11) [44EBEFBE] (AR v1)
Copy OK
Track 2
Filename F:\Flac Rips\02 - Si Te Contara.wav
Pre-gap length 0:00:01.06
Peak level 60.9 %
Extraction speed 3.9 X
Track quality 100.0 %
Test CRC 1A3BFF01
Copy CRC 1A3BFF01
Accurately ripped (confidence 11) [48254A01] (AR v1)
Copy OK
Track 3
Filename F:\Flac Rips\03 - Separala Tambien.wav
Pre-gap length 0:00:03.04
Peak level 54.9 %
Extraction speed 4.2 X
Track quality 100.0 %
Test CRC 769452C4
Copy CRC 769452C4
Accurately ripped (confidence 11) [A225F9C3] (AR v1)
Copy OK
Track 4
Filename F:\Flac Rips\04 - Caonao.wav
Pre-gap length 0:00:02.02
Peak level 67.0 %
Extraction speed 3.2 X
Track quality 99.9 %
Test CRC F432603E
Copy CRC F432603E
Accurately ripped (confidence 11) [52930E27] (AR v1)
Copy OK
Track 5
Filename F:\Flac Rips\05 - Una Mujer.wav
Pre-gap length 0:00:02.31
Peak level 71.7 %
Extraction speed 4.4 X
Track quality 100.0 %
Test CRC 8324F07B
Copy CRC 8324F07B
Accurately ripped (confidence 11) [1B38F37B] (AR v1)
Copy OK
Track 6
Filename F:\Flac Rips\06 - Baila Como Es.wav
Pre-gap length 0:00:02.57
Peak level 57.2 %
Extraction speed 4.7 X
Track quality 100.0 %
Test CRC 3E5F8DC1
Copy CRC 3E5F8DC1
Accurately ripped (confidence 11) [093ED020] (AR v1)
Copy OK
Track 7
Filename F:\Flac Rips\07 - Dance Mania.wav
Pre-gap length 0:00:04.09
Peak level 61.7 %
Extraction speed 5.0 X
Track quality 100.0 %
Test CRC A8FB05CA
Copy CRC A8FB05CA
Accurately ripped (confidence 11) [13F22C5A] (AR v1)
Copy OK
Track 8
Filename F:\Flac Rips\08 - Porque Te Perdi.wav
Pre-gap length 0:00:04.17
Peak level 71.1 %
Extraction speed 4.8 X
Track quality 100.0 %
Test CRC A5040219
Copy CRC A5040219
Accurately ripped (confidence 11) [A85F7DA5] (AR v1)
Copy OK
Track 9
Filename F:\Flac Rips\09 - Guancona.wav
Pre-gap length 0:00:02.47
Peak level 72.8 %
Extraction speed 5.2 X
Track quality 100.0 %
Test CRC AFEA8CBC
Copy CRC AFEA8CBC
Accurately ripped (confidence 11) [B5A5F4DA] (AR v1)
Copy OK
Track 10
Filename F:\Flac Rips\10 - Son Guacha.wav
Pre-gap length 0:00:01.70
Peak level 59.7 %
Extraction speed 5.4 X
Track quality 100.0 %
Test CRC 47321CB5
Copy CRC 47321CB5
Accurately ripped (confidence 11) [C4CB77C4] (AR v1)
Copy OK
Track 11
Filename F:\Flac Rips\11 - Con Sandunga.wav
Pre-gap length 0:00:02.72
Peak level 62.1 %
Extraction speed 5.6 X
Track quality 100.0 %
Test CRC 56884843
Copy CRC 56884843
Accurately ripped (confidence 11) [61749BBD] (AR v1)
Copy OK
Track 12
Filename F:\Flac Rips\12 - Cua Cua.wav
Pre-gap length 0:00:02.54
Peak level 58.7 %
Extraction speed 5.8 X
Track quality 100.0 %
Test CRC C5096239
Copy CRC C5096239
Accurately ripped (confidence 11) [AC564CA1] (AR v1)
Copy OK
Track 13
Filename F:\Flac Rips\13 - Si Te Contara (Outtake).wav
Pre-gap length 0:00:02.28
Peak level 67.7 %
Extraction speed 4.4 X
Track quality 99.9 %
Test CRC FA650A40
Copy CRC FA650A40
Accurately ripped (confidence 11) [47108044] (AR v1)
Copy OK
Track 14
Filename F:\Flac Rips\14 - A Gozar Timbero (Outtake).wav
Pre-gap length 0:00:01.09
Peak level 70.1 %
Extraction speed 6.2 X
Track quality 100.0 %
Test CRC CAEB64B9
Copy CRC CAEB64B9
Accurately ripped (confidence 11) [22B2ED0D] (AR v1)
Copy OK
Track 15
Filename F:\Flac Rips\15 - Una Mujer (Outtake).wav
Pre-gap length 0:00:01.21
Peak level 69.0 %
Extraction speed 5.2 X
Track quality 99.9 %
Test CRC 7B4CF53B
Copy CRC 7B4CF53B
Accurately ripped (confidence 11) [E76590E2] (AR v1)
Copy OK
Track 16
Filename F:\Flac Rips\16 - Chanchullo.wav
Pre-gap length 0:00:01.57
Peak level 70.5 %
Extraction speed 6.3 X
Track quality 100.0 %
Test CRC 07DB8991
Copy CRC 07DB8991
Accurately ripped (confidence 11) [D0F4355C] (AR v1)
Copy OK
Track 17
Filename F:\Flac Rips\17 - Guaguanco.wav
Pre-gap length 0:00:00.72
Peak level 61.7 %
Extraction speed 6.4 X
Track quality 100.0 %
Test CRC 4F1A1D0C
Copy CRC 4F1A1D0C
Accurately ripped (confidence 11) [FDF41338] (AR v1)
Copy OK
Track 18
Filename F:\Flac Rips\18 - Cha-Con-Cha.wav
Pre-gap length 0:00:01.06
Peak level 71.7 %
Extraction speed 6.6 X
Track quality 100.0 %
Test CRC D85DA4D1
Copy CRC D85DA4D1
Accurately ripped (confidence 11) [1EC37D99] (AR v1)
Copy OK
Track 19
Filename F:\Flac Rips\19 - El Bajo.wav
Pre-gap length 0:00:01.12
Peak level 70.7 %
Extraction speed 7.1 X
Track quality 100.0 %
Test CRC 12BD8C89
Copy CRC 12BD8C89
Accurately ripped (confidence 11) [EC116BA3] (AR v1)
Copy OK
Track 20
Filename F:\Flac Rips\20 - Suave Asi.wav
Pre-gap length 0:00:01.03
Peak level 70.2 %
Extraction speed 6.7 X
Track quality 100.0 %
Test CRC CD054978
Copy CRC CD054978
Accurately ripped (confidence 11) [E78996D9] (AR v1)
Copy OK
Track 21
Filename F:\Flac Rips\21 - Cha Cha Son.wav
Pre-gap length 0:00:01.32
Peak level 69.9 %
Extraction speed 7.2 X
Track quality 100.0 %
Test CRC 7D9D15FD
Copy CRC 7D9D15FD
Accurately ripped (confidence 11) [200BE8E0] (AR v1)
Copy OK
Track 22
Filename F:\Flac Rips\22 - Delisse.wav
Pre-gap length 0:00:01.39
Peak level 70.6 %
Extraction speed 4.6 X
Track quality 99.9 %
Test CRC EA935C5D
Copy CRC EA935C5D
Accurately ripped (confidence 11) [62998D4B] (AR v1)
Copy OK
Track 23
Filename F:\Flac Rips\23 - El Palo.wav
Pre-gap length 0:00:01.21
Peak level 69.0 %
Extraction speed 7.1 X
Track quality 100.0 %
Test CRC 69835CDC
Copy CRC 69835CDC
Accurately ripped (confidence 11) [62331F69] (AR v1)
Copy OK
All tracks accurately ripped
No errors occurred
End of status report
==== Log checksum D6DC1DA405D2FE62B1209162D75EDD3501F175AF684157DDDCC775554FD16FC3 ====
 
Содержание индексной карты (.CUE)
REM GENRE Latin
REM DATE 1961
REM DISCID 460F5917
REM COMMENT "ExactAudioCopy v1.0b2"
PERFORMER "Tito Puente"
TITLE "Dance Mania Vol 2 (Legacy Edition CD2)"
FILE "01 - A Gozar Timbero.wav" WAVE
TRACK 01 AUDIO
TITLE "A Gozar Timbero"
PERFORMER "Tito Puente"
INDEX 01 00:00:00
TRACK 02 AUDIO
TITLE "Si Te Contara"
PERFORMER "Tito Puente"
INDEX 00 03:04:26
FILE "02 - Si Te Contara.wav" WAVE
INDEX 01 00:00:00
TRACK 03 AUDIO
TITLE "Separala Tambien"
PERFORMER "Tito Puente"
INDEX 00 02:51:01
FILE "03 - Separala Tambien.wav" WAVE
INDEX 01 00:00:00
TRACK 04 AUDIO
TITLE "Caonao"
PERFORMER "Tito Puente"
INDEX 00 03:11:53
FILE "04 - Caonao.wav" WAVE
INDEX 01 00:00:00
TRACK 05 AUDIO
TITLE "Una Mujer"
PERFORMER "Tito Puente"
INDEX 00 02:29:71
FILE "05 - Una Mujer.wav" WAVE
INDEX 01 00:00:00
TRACK 06 AUDIO
TITLE "Baila Como Es"
PERFORMER "Tito Puente"
INDEX 00 02:23:21
FILE "06 - Baila Como Es.wav" WAVE
INDEX 01 00:00:00
TRACK 07 AUDIO
TITLE "Dance Mania"
PERFORMER "Tito Puente"
INDEX 00 02:44:61
FILE "07 - Dance Mania.wav" WAVE
INDEX 01 00:00:00
TRACK 08 AUDIO
TITLE "Porque Te Perdi"
PERFORMER "Tito Puente"
INDEX 00 03:10:17
FILE "08 - Porque Te Perdi.wav" WAVE
INDEX 01 00:00:00
TRACK 09 AUDIO
TITLE "Guancona"
PERFORMER "Tito Puente"
INDEX 00 01:58:55
FILE "09 - Guancona.wav" WAVE
INDEX 01 00:00:00
TRACK 10 AUDIO
TITLE "Son Guacha"
PERFORMER "Tito Puente"
INDEX 00 02:38:67
FILE "10 - Son Guacha.wav" WAVE
INDEX 01 00:00:00
TRACK 11 AUDIO
TITLE "Con Sandunga"
PERFORMER "Tito Puente"
INDEX 00 02:38:74
FILE "11 - Con Sandunga.wav" WAVE
INDEX 01 00:00:00
TRACK 12 AUDIO
TITLE "Cua Cua"
PERFORMER "Tito Puente"
INDEX 00 03:04:09
FILE "12 - Cua Cua.wav" WAVE
INDEX 01 00:00:00
TRACK 13 AUDIO
TITLE "Si Te Contara (Outtake)"
PERFORMER "Tito Puente"
INDEX 00 03:00:19
FILE "13 - Si Te Contara (Outtake).wav" WAVE
INDEX 01 00:00:00
TRACK 14 AUDIO
TITLE "A Gozar Timbero (Outtake)"
PERFORMER "Tito Puente"
INDEX 00 02:44:16
FILE "14 - A Gozar Timbero (Outtake).wav" WAVE
INDEX 01 00:00:00
TRACK 15 AUDIO
TITLE "Una Mujer (Outtake)"
PERFORMER "Tito Puente"
INDEX 00 03:05:39
FILE "15 - Una Mujer (Outtake).wav" WAVE
INDEX 01 00:00:00
TRACK 16 AUDIO
TITLE "Chanchullo"
PERFORMER "Tito Puente"
INDEX 00 03:45:46
FILE "16 - Chanchullo.wav" WAVE
INDEX 01 00:00:00
TRACK 17 AUDIO
TITLE "Guaguanco"
PERFORMER "Tito Puente"
INDEX 00 02:29:18
FILE "17 - Guaguanco.wav" WAVE
INDEX 01 00:00:00
TRACK 18 AUDIO
TITLE "Cha-Con-Cha"
PERFORMER "Tito Puente"
INDEX 00 02:30:64
FILE "18 - Cha-Con-Cha.wav" WAVE
INDEX 01 00:00:00
TRACK 19 AUDIO
TITLE "El Bajo"
PERFORMER "Tito Puente"
INDEX 00 03:02:71
FILE "19 - El Bajo.wav" WAVE
INDEX 01 00:00:00
TRACK 20 AUDIO
TITLE "Suave Asi"
PERFORMER "Tito Puente"
INDEX 00 03:18:15
FILE "20 - Suave Asi.wav" WAVE
INDEX 01 00:00:00
TRACK 21 AUDIO
TITLE "Cha Cha Son"
PERFORMER "Tito Puente"
INDEX 00 02:29:58
FILE "21 - Cha Cha Son.wav" WAVE
INDEX 01 00:00:00
TRACK 22 AUDIO
TITLE "Delisse"
PERFORMER "Tito Puente"
INDEX 00 03:02:70
FILE "22 - Delisse.wav" WAVE
INDEX 01 00:00:00
TRACK 23 AUDIO
TITLE "El Palo"
PERFORMER "Tito Puente"
INDEX 00 02:13:64
FILE "23 - El Palo.wav" WAVE
INDEX 01 00:00:00
20:48
298
Нет комментариев. Ваш будет первым!