Поиск

(Latin Jazz, Afro-Cuban Jazz) Snowboy & The Latin Section - Descarga Mambito - 1996, FLAC (image+.cue), lossless

(Latin Jazz, Afro-Cuban Jazz) Snowboy & The Latin Section - Descarga Mambito - 1996, FLAC (image+.cue), lossless
Snowboy & The Latin Section - Descarga Mambito
Жанр: Latin Jazz, Afro-Cuban Jazz
Страна-производитель диска: США
Год издания: 1996
Издатель (лейбл): Hollywood
Номер по каталогу: AJ-68042-2
Аудиокодек: FLAC (*.flac)
Тип рипа: image+.cue
Битрейт аудио: lossless
Продолжительность: 42:08
Источник (релизер): dreadbull (hqshare)
Наличие сканов в содержимом раздачи: да
Треклист:
01. Bella Bella 1:17
02. Mambito 7:45
03. In the Wee Small Hours of the Morning 6:47
04. Mambo in Two Parts 7:22
05. Where's the One? 5:42
06. Snow-Snow-Quick-Quick-Snow 6:55
07. Descarga Mozambique 6:18.
 
Лог создания рипа
EAC extraction logfile from 2. November 2010, 17:07 for CD
Snowboy & The Latin Section / Descarga Mambito
Used drive : PLEXTOR DVDR PX-750A Adapter: 0 ID: 1
Read mode : Secure with NO C2, accurate stream, disable cache
Read offset correction : 102
Overread into Lead-In and Lead-Out : No
Used output format : Internal WAV Routines
44.100 Hz; 16 Bit; Stereo
Other options :
Fill up missing offset samples with silence : Yes
Delete leading and trailing silent blocks : No
Installed external ASPI interface
Range status and errors
Selected range
Filename L:\emule temp\Donley Files\Snowboy - Descarga Mambito (1996, Hollywood) [eac-ape-scans] byDrBull\CDImage.wav
Peak level 100.0 %
Range quality 100.0 %
CRC CF5B823B
Copy OK
No errors occured
End of status report
 
Содержание индексной карты (.CUE)
PERFORMER "Snowboy & The Latin Section"
TITLE "Descarga Mambito"
FILE "Snowboy & The Latin Section - Descarga Mambito.wav" WAVE
TRACK 01 AUDIO
TITLE "Bella Bella"
PERFORMER "Snowboy & The Latin Section"
INDEX 01 00:00:00
TRACK 02 AUDIO
TITLE "Mambito"
PERFORMER "Snowboy & The Latin Section"
INDEX 01 01:17:70
TRACK 03 AUDIO
TITLE "In The Wee Small Hours Of The Morning"
PERFORMER "Snowboy & The Latin Section"
INDEX 00 09:00:05
INDEX 01 09:02:72
TRACK 04 AUDIO
TITLE "Mambo In Two Parts"
PERFORMER "Snowboy & The Latin Section"
INDEX 00 15:46:69
INDEX 01 15:50:10
TRACK 05 AUDIO
TITLE "Where's The One?"
PERFORMER "Snowboy & The Latin Section"
INDEX 00 23:10:55
INDEX 01 23:13:07
TRACK 06 AUDIO
TITLE "Snow-Snow-Quick-Quick-Snow"
PERFORMER "Snowboy & The Latin Section"
INDEX 00 28:51:25
INDEX 01 28:55:12
TRACK 07 AUDIO
TITLE "Descarga Mozambique"
PERFORMER "Snowboy & The Latin Section"
INDEX 00 35:47:72
INDEX 01 35:50:20
 
Review by John Bush
For his 1991 album Descarga Mambito, Snowboy calls on the ghost of Machito for seven tracks of great Latin jazz and salsa, recorded with his band Latin Section (Chris Kibble on piano and Joe DeJesus on trombone). Highlights include the opener "Go Snow, Go" and his respectful cover of "In the Wee Small Hours of the Morning."
 
Состав
Mark Cotgrove aka Snowboy (congas, bongos, timbales, percussion);
Victor Hugo (vocals);
Gary Plumley (flute, alto & tenor saxophone);
Joe DeJesus (trombone);
Chris Kibble (piano);
Andres Lafone (bass).
05:42
249
Нет комментариев. Ваш будет первым!