Поиск

(Latin, Funk / Soul, Bossanova) [CD] Sabrina Malheiros - New Morning - 2008, FLAC (tracks+.cue), lossless

(Latin, Funk / Soul, Bossanova) [CD] Sabrina Malheiros - New Morning - 2008, FLAC (tracks+.cue), lossless
Треклист:
Sabrina Malheiros / New Morning
Жанр: Latin, Funk / Soul, Bossanova
Носитель: CD
Страна-производитель диска (релиза): UK
Год издания: 2008
Издатель (лейбл): Far Out Recordings
Номер по каталогу: FARO 131 CD
Страна исполнителя (группы): Brasil
Аудиокодек: FLAC (*.flac)
Тип рипа: tracks+.cue
Битрейт аудио: lossless
Продолжительность: 46:59
Источник (релизер): CD
Наличие сканов в содержимом раздачи: да
Треклист:
01 Brisa Mar (03:16)
02 Nova Estacao (04:48)
03 Sintonia (03:26)
04 New Morning (05:02)
05 Alem Do Sol (03:56)
06 It's Too Late (03:54)
07 Essa Cancao (04:31)
08 Eira Nem Belra (03:07)
09 Connexao (05:40)
10 Sem Pressa (02:51)
11 Vou Voar (04:02)
12 Nuances (02:19)
https://www.discogs.com/Sabrina-Malheiros-New-Morning/release/1394436
 
Лог создания рипа
Exact Audio Copy V1.0 beta 2 from 29. April 2011
Отчёт EAC об извлечении, выполненном 22. сентября 2016, 18:12
Sabrina Malheiros ? / New Morning
Дисковод: PLEXTOR BDDVDRPX-B330SA Adapter: 0 ID: 1
Режим чтения : Достоверность
Использование точного потока : Да
Отключение кэша аудио : Да
Использование указателей C2 : Нет
Коррекция смещения при чтении : 702
Способность читать области Lead-in и Lead-out : Нет
Заполнение пропущенных сэмплов тишиной : Да
Удаление блоков с тишиной в начале и конце : Нет
При вычислениях CRC использовались нулевые сэмплы : Да
Интерфейс : Встроенный Win32-интерфейс для Win NT/2000
Обработка зазоров : Добавлено к предыдущему треку
Выходной формат : Пользовательский кодировщик
Выбранный битрейт : 128 kBit/s
Качество : Высокий
Добавление ID3-тега : Нет
Утилита сжатия : C:\Program Files\Exact Audio Copy\FLAC\FLAC.EXE
Дополнительные параметры : -6 -V -T "ARTIST=%artist%" -T "TITLE=%title%" -T "ALBUM=%albumtitle%" -T "DATE=%year%" -T "TRACKNUMBER=%tracknr%" -T "GENRE=%genre%" -T "COMMENT=%comment%" -T "BAND=%albuminterpret%" -T "COMPOSER=%composer%" %haslyrics%--tag-from-
TOC извлечённого CD
Трек | Старт | Длительность | Начальный сектор | Конечный сектор
---------------------------------------------------------------------
1 | 0:00.00 | 3:16.45 | 0 | 14744
2 | 3:16.45 | 4:48.13 | 14745 | 36357
3 | 8:04.58 | 3:26.52 | 36358 | 51859
4 | 11:31.35 | 5:02.55 | 51860 | 74564
5 | 16:34.15 | 3:56.55 | 74565 | 92319
6 | 20:30.70 | 3:54.08 | 92320 | 109877
7 | 24:25.03 | 4:31.52 | 109878 | 130254
8 | 28:56.55 | 3:07.63 | 130255 | 144342
9 | 32:04.43 | 5:40.37 | 144343 | 169879
10 | 37:45.05 | 2:51.70 | 169880 | 182774
11 | 40:37.00 | 4:02.65 | 182775 | 200989
12 | 44:39.65 | 2:19.50 | 200990 | 211464
Трек 1
Имя файла D:\FLAC\01 Brisa Mar.wav
Длина предзазора 0:00:02.00
Пиковый уровень 100.0 %
Скорость извлечения 1.0 X
Качество трека 100.0 %
CRC теста BFE09968
CRC копии BFE09968
Точное извлечение (достоверность 3) [A4A041A1] (AR v2)
Копирование... OK
Трек 2
Имя файла D:\FLAC\02 Nova Estacao.wav
Пиковый уровень 100.0 %
Скорость извлечения 1.1 X
Качество трека 99.9 %
CRC теста 5AFD80C4
CRC копии 5AFD80C4
Точное извлечение (достоверность 3) [E4376EFB] (AR v2)
Копирование... OK
Трек 3
Имя файла D:\FLAC\03 Sintonia.wav
Пиковый уровень 100.0 %
Скорость извлечения 1.3 X
Качество трека 100.0 %
CRC теста 4CD3EF2E
CRC копии 4CD3EF2E
Точное извлечение (достоверность 3) [580369B9] (AR v2)
Копирование... OK
Трек 4
Имя файла D:\FLAC\04 New Morning.wav
Пиковый уровень 100.0 %
Скорость извлечения 1.4 X
Качество трека 100.0 %
CRC теста 2289708C
CRC копии 2289708C
Точное извлечение (достоверность 3) [6436E493] (AR v2)
Копирование... OK
Трек 5
Имя файла D:\FLAC\05 Alem Do Sol.wav
Длина предзазора 0:00:01.32
Пиковый уровень 100.0 %
Скорость извлечения 1.3 X
Качество трека 99.9 %
CRC теста 40D1F941
CRC копии 40D1F941
Точное извлечение (достоверность 3) [8A9A085F] (AR v2)
Копирование... OK
Трек 6
Имя файла D:\FLAC\06 It's Too Late.wav
Пиковый уровень 100.0 %
Скорость извлечения 1.6 X
Качество трека 100.0 %
CRC теста 53268049
CRC копии 53268049
Точное извлечение (достоверность 3) [A80FEF28] (AR v2)
Копирование... OK
Трек 7
Имя файла D:\FLAC\07 Essa Cancao.wav
Длина предзазора 0:00:02.62
Пиковый уровень 100.0 %
Скорость извлечения 1.7 X
Качество трека 100.0 %
CRC теста 3311E79C
CRC копии 3311E79C
Точное извлечение (достоверность 3) [A3644873] (AR v2)
Копирование... OK
Трек 8
Имя файла D:\FLAC\08 Eira Nem Belra.wav
Длина предзазора 0:00:01.09
Пиковый уровень 100.0 %
Скорость извлечения 1.7 X
Качество трека 100.0 %
CRC теста 7BC18EFC
CRC копии 7BC18EFC
Точное извлечение (достоверность 3) [3B78C16C] (AR v2)
Копирование... OK
Трек 9
Имя файла D:\FLAC\09 Connexao.wav
Пиковый уровень 100.0 %
Скорость извлечения 1.9 X
Качество трека 100.0 %
CRC теста 18C5DE78
CRC копии 18C5DE78
Точное извлечение (достоверность 3) [9D9FB0E3] (AR v2)
Копирование... OK
Трек 10
Имя файла D:\FLAC\10 Sem Pressa.wav
Пиковый уровень 100.0 %
Скорость извлечения 1.9 X
Качество трека 100.0 %
CRC теста 63EC19C7
CRC копии 63EC19C7
Точное извлечение (достоверность 3) [D772A056] (AR v2)
Копирование... OK
Трек 11
Имя файла D:\FLAC\11 Vou Voar.wav
Длина предзазора 0:00:01.07
Пиковый уровень 100.0 %
Скорость извлечения 2.0 X
Качество трека 100.0 %
CRC теста B4FEE444
CRC копии B4FEE444
Точное извлечение (достоверность 3) [23CDA031] (AR v2)
Копирование... OK
Трек 12
Имя файла D:\FLAC\12 Nuances.wav
Длина предзазора 0:00:01.09
Пиковый уровень 100.0 %
Скорость извлечения 1.9 X
Качество трека 100.0 %
CRC теста 8470D5B1
CRC копии 8470D5B1
Точное извлечение (достоверность 3) [B71406BD] (AR v2)
Копирование... OK
Все треки извлечены точно
Ошибок не произошло
Конец отчёта
---- CUETools DB Plugin V2.1.4
[CTDB TOCID: WxAOxnA2B0Zobyf64MPp8aIUD0w-] found
Submit result: already submitted
Track | CTDB Status
1 | (4/4) Accurately ripped
2 | (4/4) Accurately ripped
3 | (4/4) Accurately ripped
4 | (4/4) Accurately ripped
5 | (4/4) Accurately ripped
6 | (4/4) Accurately ripped
7 | (4/4) Accurately ripped
8 | (4/4) Accurately ripped
9 | (4/4) Accurately ripped
10 | (4/4) Accurately ripped
11 | (4/4) Accurately ripped
12 | (4/4) Accurately ripped
==== Контрольная сумма отчёта F90DE5FD070C669F5BD6E2E06D72B3415EACBAFC38E8470539C3494F9E54F513 ====
 
Содержание индексной карты (.CUE)
REM GENRE Latin
REM DATE 2008
REM DISCID C30B030C
REM COMMENT "ExactAudioCopy v1.0b2"
PERFORMER "Sabrina Malheiros ."
TITLE "New Morning"
FILE "01 Brisa Mar.wav" WAVE
TRACK 01 AUDIO
TITLE "Brisa Mar"
PERFORMER "Sabrina Malheiros"
ISRC GBDCR0700099
INDEX 01 00:00:00
FILE "02 Nova Estacao.wav" WAVE
TRACK 02 AUDIO
TITLE "Nova Estacao"
PERFORMER "Sabrina Malheiros"
ISRC GBDCR0700107
INDEX 01 00:00:00
FILE "03 Sintonia.wav" WAVE
TRACK 03 AUDIO
TITLE "Sintonia"
PERFORMER "Sabrina Malheiros"
ISRC GBDCR0700110
INDEX 01 00:00:00
FILE "04 New Morning.wav" WAVE
TRACK 04 AUDIO
TITLE "New Morning"
PERFORMER "Sabrina Malheiros"
ISRC GBDCR0700106
INDEX 01 00:00:00
TRACK 05 AUDIO
TITLE "Alem Do Sol"
PERFORMER "Daniel Maunick"
ISRC GBDCR0700100
INDEX 00 05:01:23
FILE "05 Alem Do Sol.wav" WAVE
INDEX 01 00:00:00
FILE "06 It's Too Late.wav" WAVE
TRACK 06 AUDIO
TITLE "It's Too Late"
PERFORMER "Sabrina Malheiros"
ISRC GBDCR0700105
INDEX 01 00:00:00
TRACK 07 AUDIO
TITLE "Essa Cancao"
PERFORMER "Sabrina Malheiros"
ISRC GBDCR0700103
INDEX 00 03:51:21
FILE "07 Essa Cancao.wav" WAVE
INDEX 01 00:00:00
TRACK 08 AUDIO
TITLE "Eira Nem Belra"
PERFORMER "Sabrina Malheiros"
ISRC GBDCR0700102
INDEX 00 04:30:43
FILE "08 Eira Nem Belra.wav" WAVE
INDEX 01 00:00:00
FILE "09 Connexao.wav" WAVE
TRACK 09 AUDIO
TITLE "Connexao"
PERFORMER "Sabrina Malheiros"
ISRC GBDCR0700101
INDEX 01 00:00:00
FILE "10 Sem Pressa.wav" WAVE
TRACK 10 AUDIO
TITLE "Sem Pressa"
PERFORMER "Sabrina Malheiros"
ISRC GBDCR0700109
INDEX 01 00:00:00
TRACK 11 AUDIO
TITLE "Vou Voar"
PERFORMER "Sabrina Malheiros"
ISRC GBDCR0700111
INDEX 00 02:50:63
FILE "11 Vou Voar.wav" WAVE
INDEX 01 00:00:00
TRACK 12 AUDIO
TITLE "Nuances"
PERFORMER "Sabrina Malheiros"
ISRC GBDCR0700108
INDEX 00 04:01:56
FILE "12 Nuances.wav" WAVE
INDEX 01 00:00:00
22:06
325
Нет комментариев. Ваш будет первым!