Поиск

(Ethnic Jazz) [CD] VA - World Soul (Jazz & Tzaz 58) - 1997, FLAC (tracks+.cue), lossless

(Ethnic Jazz) [CD] VA - World Soul (Jazz & Tzaz 58) - 1997, FLAC (tracks+.cue), lossless
Треклист:
Various - World Soul {Jazz & Tzaz 58}
Жанр: Post-Bop, Vocal Jazz
Страна-производитель диска: Greece
Год издания: 1997
Издатель (лейбл): Polygram Records SA (Greece)
Номер по каталогу: 441-2
Аудиокодек: FLAC (*.flac)
Тип рипа: tracks+.cue
Битрейт аудио: lossless
Продолжительность: 56:13
Источник (релизер): rip by alekow
Наличие сканов в содержимом раздачи: да (400 dpi)
Треклист:

01. Jim Pepper - Witchi-Tia-To [8:21]
02. Art Blakey - Blues March [6:35]
03. Trio Toykeat - Tango Dada [4:12]
04. Bheki Mseleku - Ntuli Street [6:04]
05. The Rosenberg Trio - It Don't Mean A Thing [2:28]
06. Marс Beacco - The Pasta Dance [4:33]
07. Laura Fygi - Each And EveryOne [3:16]
08. Roland Kirk - Black Diamonds [5:21]
09. Tony Scott - Is Not All One [3:13]
10. Randy Weston - Caravan [12:06]
rip specifications
 
Лог создания рипа (*.log)
Exact Audio Copy V1.0 beta 1 from 15. November 2010
EAC extraction logfile from 22. September 2011, 18:11
Various / World Soul (Jazz & Tzaz 58)
Used drive : TSSTcorpCD/DVDW SH-S182D Adapter: 1 ID: 0
Read mode : Secure
Utilize accurate stream : Yes
Defeat audio cache : Yes
Make use of C2 pointers : No
Read offset correction : 6
Overread into Lead-In and Lead-Out : No
Fill up missing offset samples with silence : Yes
Delete leading and trailing silent blocks : No
Null samples used in CRC calculations : Yes
Used interface : Native Win32 interface for Win NT & 2000
Gap handling : Appended to previous track
Used output format : User Defined Encoder
Selected bitrate : 1024 kBit/s
Quality : High
Add ID3 tag : No
Command line compressor : C:\Program Files\Exact Audio Copy\Flac\flac.exe
Additional command line options : -5 -V -T "ARTIST=%a" -T "TITLE=%t" -T "ALBUM=%g" -T "DATE=%y" -T "TRACKNUMBER=%n" -T "GENRE=%m" -T "COMMENT=%e" %s -o %d
TOC of the extracted CD
Track | Start | Length | Start sector | End sector
---------------------------------------------------------
1 | 0:00.00 | 8:21.60 | 0 | 37634
2 | 8:21.60 | 6:35.35 | 37635 | 67294
3 | 14:57.20 | 4:12.10 | 67295 | 86204
4 | 19:09.30 | 6:04.42 | 86205 | 113546
5 | 25:13.72 | 2:28.13 | 113547 | 124659
6 | 27:42.10 | 4:33.65 | 124660 | 145199
7 | 32:16.00 | 3:16.00 | 145200 | 159899
8 | 35:32.00 | 5:21.40 | 159900 | 184014
9 | 40:53.40 | 3:13.07 | 184015 | 198496
10 | 44:06.47 | 12:06.40 | 198497 | 252986
Track 1
Filename C:\New Folder\01. Jim Pepper - Witchi-Tia-To.wav
Pre-gap length 0:00:02.00
Peak level 96.7 %
Extraction speed 5.1 X
Track quality 100.0 %
Test CRC F1A75E9D
Copy CRC F1A75E9D
Track not present in AccurateRip database
Copy OK
Track 2
Filename C:\New Folder\02. Art Blakey - Blues March.wav
Pre-gap length 0:00:01.45
Peak level 95.2 %
Extraction speed 5.2 X
Track quality 99.9 %
Test CRC F711BC5C
Copy CRC F711BC5C
Track not present in AccurateRip database
Copy OK
Track 3
Filename C:\New Folder\03. Trio Toykeat - Tango Dada.wav
Pre-gap length 0:00:01.05
Peak level 98.4 %
Extraction speed 5.6 X
Track quality 100.0 %
Test CRC F2157DD9
Copy CRC F2157DD9
Track not present in AccurateRip database
Copy OK
Track 4
Filename C:\New Folder\04. Bheki Mseleku - Ntuli Street.wav
Pre-gap length 0:00:01.48
Peak level 98.8 %
Extraction speed 6.4 X
Track quality 100.0 %
Test CRC B04E890D
Copy CRC B04E890D
Track not present in AccurateRip database
Copy OK
Track 5
Filename C:\New Folder\05. The Rosenberg Trio - It Don't Mean A Thing.wav
Pre-gap length 0:00:01.37
Peak level 98.4 %
Extraction speed 6.0 X
Track quality 100.0 %
Test CRC E0A4F2C8
Copy CRC E0A4F2C8
Track not present in AccurateRip database
Copy OK
Track 6
Filename C:\New Folder\06. Mark Beacco - The Pasta Dance.wav
Pre-gap length 0:00:01.43
Peak level 98.4 %
Extraction speed 6.6 X
Track quality 100.0 %
Test CRC F4D2F8CB
Copy CRC F4D2F8CB
Track not present in AccurateRip database
Copy OK
Track 7
Filename C:\New Folder\07. Laura Fygi - Each And EveryOne.wav
Pre-gap length 0:00:01.05
Peak level 85.9 %
Extraction speed 5.1 X
Track quality 100.0 %
Test CRC AD6B1F15
Copy CRC AD6B1F15
Track not present in AccurateRip database
Copy OK
Track 8
Filename C:\New Folder\08. Roland Kirk - Black Diamonds.wav
Pre-gap length 0:00:01.48
Peak level 98.0 %
Extraction speed 6.9 X
Track quality 100.0 %
Test CRC 8EF923B5
Copy CRC 8EF923B5
Track not present in AccurateRip database
Copy OK
Track 9
Filename C:\New Folder\09. Tony Scott - Is Not All One.wav
Pre-gap length 0:00:01.45
Peak level 80.4 %
Extraction speed 6.4 X
Track quality 100.0 %
Test CRC CF14FF89
Copy CRC CF14FF89
Track not present in AccurateRip database
Copy OK
Track 10
Filename C:\New Folder\10. Randy Weston - Caravan.wav
Pre-gap length 0:00:01.42
Peak level 90.6 %
Extraction speed 8.1 X
Track quality 99.9 %
Test CRC 7B8C56A4
Copy CRC 7B8C56A4
Track not present in AccurateRip database
Copy OK
None of the tracks are present in the AccurateRip database
No errors occurred
End of status report
==== Log checksum AC8E2BA3CC2F3CD6B8A871FDFCF707CAD7188B257BC374EAD319619E747405E0 ====
 
Содержание индексной карты (*.cue)
REM GENRE Jazz
REM DATE 1998
REM DISCID 8C0D2D0A
REM COMMENT "ExactAudioCopy v1.0b1"
PERFORMER "Various"
TITLE "World Soul (Jazz & Tzaz 58)"
FILE "01. Jim Pepper - Witchi-Tia-To.wav" WAVE
TRACK 01 AUDIO
TITLE "Witchi-Tia-To"
PERFORMER "Jim Pepper"
INDEX 01 00:00:00
TRACK 02 AUDIO
TITLE "Blues March"
PERFORMER "Art Blakey"
INDEX 00 08:20:15
FILE "02. Art Blakey - Blues March.wav" WAVE
INDEX 01 00:00:00
TRACK 03 AUDIO
TITLE "Tango Dada"
PERFORMER "Trio Toykeat"
INDEX 00 06:34:30
FILE "03. Trio Toykeat - Tango Dada.wav" WAVE
INDEX 01 00:00:00
TRACK 04 AUDIO
TITLE "Ntuli Street"
PERFORMER "Bheki Mseleku"
INDEX 00 04:10:37
FILE "04. Bheki Mseleku - Ntuli Street.wav" WAVE
INDEX 01 00:00:00
TRACK 05 AUDIO
TITLE "It Don't Mean A Thing"
PERFORMER "The Rosenberg Trio"
INDEX 00 06:03:05
FILE "05. The Rosenberg Trio - It Don't Mean A Thing.wav" WAVE
INDEX 01 00:00:00
TRACK 06 AUDIO
TITLE "The Pasta Dance"
PERFORMER "Mark Beacco"
INDEX 00 02:26:45
FILE "06. Mark Beacco - The Pasta Dance.wav" WAVE
INDEX 01 00:00:00
TRACK 07 AUDIO
TITLE "Each And EveryOne"
PERFORMER "Laura Fygi"
INDEX 00 04:32:60
FILE "07. Laura Fygi - Each And EveryOne.wav" WAVE
INDEX 01 00:00:00
TRACK 08 AUDIO
TITLE "Black Diamonds"
PERFORMER "Roland Kirk"
INDEX 00 03:14:27
FILE "08. Roland Kirk - Black Diamonds.wav" WAVE
INDEX 01 00:00:00
TRACK 09 AUDIO
TITLE "Is Not All One"
PERFORMER "Tony Scott"
INDEX 00 05:19:70
FILE "09. Tony Scott - Is Not All One.wav" WAVE
INDEX 01 00:00:00
TRACK 10 AUDIO
TITLE "Caravan"
PERFORMER "Randy Weston"
INDEX 00 03:11:40
FILE "10. Randy Weston - Caravan.wav" WAVE
INDEX 01 00:00:00
22:07
252
Нет комментариев. Ваш будет первым!