Поиск

(Klezmer Jazz, Modern Creative, Tzadik) The Cracow Klezmer Band - Remembrance - 2007, FLAC (image+.cue), lossless

Треклист:
The Cracow Klezmer Band / Remembrance
Жанр: Klezmer Jazz, Modern Creative
Страна-производитель диска: USA
Год издания диска: 2007
Издатель (лейбл): Tzadik
Номер по каталогу: TZ 8116
Страна: Poland
Аудиокодек: FLAC (*.flac)
Тип рипа: image+.cue
Битрейт аудио: lossless
Продолжительность: 1:09:11
Источник (релизер): CD
Наличие сканов в содержимом раздачи: да
Треклист:
01 - Recollections Of The Past
02 - The Migration Of Souls
03 - Memento Mori
04 - The Tree Of Life
05 - Klezmer Rhapsody
06 - The Player
07 - Awaiting
08 - The Colours Of The Heavens
09 - A Devilish Tale
 
Лог создания рипа
Exact Audio Copy V1.0 beta 2 from 29. April 2011
EAC extraction logfile from 25. July 2011, 13:55
Cracow Klezmer Band / Remembrance
Used drive : Optiarc DVD RW AD-7240S Adapter: 2 ID: 0
Read mode : Secure
Utilize accurate stream : Yes
Defeat audio cache : Yes
Make use of C2 pointers : No
Read offset correction : 48
Overread into Lead-In and Lead-Out : No
Fill up missing offset samples with silence : Yes
Delete leading and trailing silent blocks : No
Null samples used in CRC calculations : Yes
Used interface : Native Win32 interface for Win NT & 2000
Used output format : User Defined Encoder
Selected bitrate : 768 kBit/s
Quality : High
Add ID3 tag : No
Command line compressor : C:\Program Files\Exact Audio Copy\FLAC\FLAC.EXE
Additional command line options : -6 -V -T "ARTIST=%artist%" -T "TITLE=%title%" -T "ALBUM=%albumtitle%" -T "DATE=%year%" -T "TRACKNUMBER=%tracknr%" -T "GENRE=%genre%" -T "COMMENT=%comment%" -T "BAND=%albuminterpret%" -T "COMPOSER=%composer%" %haslyrics%--ta
TOC of the extracted CD
Track | Start | Length | Start sector | End sector
---------------------------------------------------------
1 | 0:00.00 | 15:05.53 | 0 | 67927
2 | 15:05.53 | 8:59.36 | 67928 | 108388
3 | 24:05.14 | 5:54.58 | 108389 | 134996
4 | 29:59.72 | 9:13.55 | 134997 | 176526
5 | 39:13.52 | 4:31.14 | 176527 | 196865
6 | 43:44.66 | 8:21.39 | 196866 | 234479
7 | 52:06.30 | 7:37.54 | 234480 | 268808
8 | 59:44.09 | 6:00.24 | 268809 | 295832
9 | 65:44.33 | 3:27.23 | 295833 | 311380
Range status and errors
Selected range
Filename C:\Documents and Settings\User\Мои документы\Cracow Klezmer Band - Remembrance (2007)\Cracow Klezmer Band - Remembrance.wav
Peak level 97.7 %
Extraction speed 4.3 X
Range quality 100.0 %
Test CRC 37D70CBD
Copy CRC 37D70CBD
Copy OK
No errors occurred
AccurateRip summary
Track 1 accurately ripped (confidence 5) [18EA8252] (AR v1)
Track 2 accurately ripped (confidence 5) [94BB5D85] (AR v1)
Track 3 accurately ripped (confidence 5) [A72873A4] (AR v1)
Track 4 accurately ripped (confidence 5) [89D0FB0F] (AR v1)
Track 5 accurately ripped (confidence 5) [E4EF076B] (AR v1)
Track 6 accurately ripped (confidence 5) [80DED164] (AR v1)
Track 7 accurately ripped (confidence 5) [BD858412] (AR v1)
Track 8 accurately ripped (confidence 5) [D073C20B] (AR v1)
Track 9 accurately ripped (confidence 5) [813498B0] (AR v1)
All tracks accurately ripped
End of status report
==== Log checksum 38A161FEA44B0B095BA25363092AAD27A8B428F94E447E39F3D6630F5F649D16 ====
 
Содержание индексной карты (.CUE)
REM GENRE Klezmer
REM DATE 2007
REM DISCID 85103709
REM COMMENT "ExactAudioCopy v1.0b2"
PERFORMER "Cracow Klezmer Band"
TITLE "Remembrance"
FILE "Cracow Klezmer Band - Remembrance.flac" WAVE
TRACK 01 AUDIO
TITLE "Recollections of the Past"
PERFORMER "Cracow Klezmer Band"
INDEX 01 00:00:00
TRACK 02 AUDIO
TITLE "The Migration of Souls"
PERFORMER "Cracow Klezmer Band"
INDEX 01 15:05:53
TRACK 03 AUDIO
TITLE "Memento Mori"
PERFORMER "Cracow Klezmer Band"
INDEX 01 24:05:14
TRACK 04 AUDIO
TITLE "The Tree of Liife"
PERFORMER "Cracow Klezmer Band"
INDEX 01 29:59:72
TRACK 05 AUDIO
TITLE "Klezmer Rhapsody"
PERFORMER "Cracow Klezmer Band"
INDEX 01 39:13:52
TRACK 06 AUDIO
TITLE "The Prayer"
PERFORMER "Cracow Klezmer Band"
INDEX 01 43:44:66
TRACK 07 AUDIO
TITLE "Awaiting"
PERFORMER "Cracow Klezmer Band"
INDEX 01 52:06:30
TRACK 08 AUDIO
TITLE "The Colours of the Heavens"
PERFORMER "Cracow Klezmer Band"
INDEX 01 59:44:09
TRACK 09 AUDIO
TITLE "A Devilish Tale"
PERFORMER "Cracow Klezmer Band"
INDEX 01 65:44:33
 
Об альбоме (сборнике)
The last release by this spectacular ensemble. Formed in 1997, the Cracow Klezmer Band has been a phenomena. Through their spectacular combination of impeccable musicianship, imaginative arrangements and passionate performances they have developed into one of the most successful groups in Radical Jewish Culture. This exciting live CD marks their dissolution after ten years and captures them performing an exciting program of colorful new music and a few of their compositional classics in their home of Warsaw, Poland.
 
Состав
Jaroslaw Bester - bayan
Oleg Dyyak - bayan, clarinet, percussion
Wojciech Front - double bass
Jaraslaw Tyrala - violin
23:22
265
Нет комментариев. Ваш будет первым!