Поиск

(Klezmer Jazz, Modern Creative, Tzadik) David Taylor / Red Sea - 2009, FLAC (image+.cue), lossless

(Klezmer Jazz, Modern Creative, Tzadik) David Taylor / Red Sea - 2009, FLAC (image+.cue), lossless
Треклист:
David Taylor / Red Sea
Жанр: Klezmer Jazz, Modern Creative
Страна-производитель диска: USA
Год издания диска: 2009
Издатель (лейбл): Tzadik
Номер по каталогу: TZ 8148
Страна: USA
Аудиокодек: FLAC (*.flac)
Тип рипа: image+.cue
Битрейт аудио: lossless
Продолжительность: 1:02:06
Источник (релизер): CD
Наличие сканов в содержимом раздачи: да
Треклист:
01 - Elohai N'Shomo
02 - Av Harachamim
03 - Psalm 106
04 - Flight Song
05 - Areshes S'fosenu
06 - Ma Tovu
07 - Red Sea
08 - Song of the Sea
09 - Ma'oz Tzur
10 - V'hu Rachum
 
Лог создания рипа
Exact Audio Copy V1.0 beta 2 from 29. April 2011
EAC extraction logfile from 20. July 2011, 9:43
David Taylor / Red Sea
Used drive : Optiarc DVD RW AD-7240S Adapter: 2 ID: 0
Read mode : Secure
Utilize accurate stream : Yes
Defeat audio cache : Yes
Make use of C2 pointers : No
Read offset correction : 48
Overread into Lead-In and Lead-Out : No
Fill up missing offset samples with silence : Yes
Delete leading and trailing silent blocks : No
Null samples used in CRC calculations : Yes
Used interface : Native Win32 interface for Win NT & 2000
Used output format : User Defined Encoder
Selected bitrate : 768 kBit/s
Quality : High
Add ID3 tag : No
Command line compressor : C:\Program Files\Exact Audio Copy\FLAC\FLAC.EXE
Additional command line options : -6 -V -T "ARTIST=%artist%" -T "TITLE=%title%" -T "ALBUM=%albumtitle%" -T "DATE=%year%" -T "TRACKNUMBER=%tracknr%" -T "GENRE=%genre%" -T "COMMENT=%comment%" -T "BAND=%albuminterpret%" -T "COMPOSER=%composer%" %haslyrics%--ta
TOC of the extracted CD
Track | Start | Length | Start sector | End sector
---------------------------------------------------------
1 | 0:00.00 | 4:43.47 | 0 | 21271
2 | 4:43.47 | 6:21.26 | 21272 | 49872
3 | 11:04.73 | 14:12.05 | 49873 | 113777
4 | 25:17.03 | 2:54.04 | 113778 | 126831
5 | 28:11.07 | 5:30.39 | 126832 | 151620
6 | 33:41.46 | 4:49.19 | 151621 | 173314
7 | 38:30.65 | 7:36.40 | 173315 | 207554
8 | 46:07.30 | 4:42.58 | 207555 | 228762
9 | 50:50.13 | 6:23.00 | 228763 | 257487
10 | 57:13.13 | 4:52.65 | 257488 | 279452
Range status and errors
Selected range
Filename C:\Documents and Settings\User\Мои документы\David Taylor - Red Sea (2009)\David Taylor - Red Sea.wav
Peak level 97.7 %
Extraction speed 4.0 X
Range quality 99.9 %
Test CRC 0469D4C8
Copy CRC 0469D4C8
Copy OK
No errors occurred
AccurateRip summary
Track 1 accurately ripped (confidence 1) [E2F82F60] (AR v1)
Track 2 accurately ripped (confidence 1) [AC475314] (AR v1)
Track 3 accurately ripped (confidence 1) [B7868AB6] (AR v1)
Track 4 accurately ripped (confidence 1) [850DAA61] (AR v1)
Track 5 accurately ripped (confidence 1) [98F315D7] (AR v1)
Track 6 accurately ripped (confidence 1) [F9E544CC] (AR v1)
Track 7 accurately ripped (confidence 1) [398631A4] (AR v1)
Track 8 accurately ripped (confidence 1) [8CAC0DA0] (AR v1)
Track 9 accurately ripped (confidence 1) [B4DAEEBD] (AR v1)
Track 10 accurately ripped (confidence 1) [BFD69EF9] (AR v1)
All tracks accurately ripped
End of status report
==== Log checksum 908753B9009AED8ED9FBD2FE07034BEB150065A93FAFBC55615B2F22B46B0DB9 ====
 
Содержание индексной карты (.CUE)
REM GENRE Jazz
REM DATE 2009
REM DISCID 860E8E0A
REM COMMENT "ExactAudioCopy v1.0b2"
PERFORMER "David Taylor"
TITLE "Red Sea"
FILE "David Taylor - Red Sea.flac" WAVE
TRACK 01 AUDIO
TITLE "Elohai N'Shomo"
PERFORMER "David Taylor"
INDEX 01 00:00:00
TRACK 02 AUDIO
TITLE "Av Harachamim"
PERFORMER "David Taylor"
INDEX 01 04:43:47
TRACK 03 AUDIO
TITLE "Psalm 106"
PERFORMER "David Taylor"
INDEX 01 11:04:73
TRACK 04 AUDIO
TITLE "Flight Song"
PERFORMER "David Taylor"
INDEX 01 25:17:03
TRACK 05 AUDIO
TITLE "Areshes S'fosenu"
PERFORMER "David Taylor"
INDEX 01 28:11:07
TRACK 06 AUDIO
TITLE "Ma Tovu"
PERFORMER "David Taylor"
INDEX 01 33:41:46
TRACK 07 AUDIO
TITLE "Red Sea"
PERFORMER "David Taylor"
INDEX 01 38:30:65
TRACK 08 AUDIO
TITLE "Song Of The Sea"
PERFORMER "David Taylor"
INDEX 01 46:07:30
TRACK 09 AUDIO
TITLE "Ma'oz Tzur"
PERFORMER "David Taylor"
INDEX 00 50:48:29
INDEX 01 50:50:13
TRACK 10 AUDIO
TITLE "V'hu Rachum"
PERFORMER "David Taylor"
INDEX 01 57:13:13
 
Об альбоме (сборнике)
Bass trombonist David Taylor has this incredible resumé which includes amongst others the New York Philharmonic, playing with Ellington, the Rolling Stones, Blood, Sweat & Tears and even appearing on the Muppett Show with Gil Evans, but also releasing albums under his own name in more modern settings. With that background, you may expect anything, and whether it's a good thing that Tzadik offered him the chance to release this album will remain a question of debate.
Taylor himself plays tenor trombone, and a wide variety of regular or custom-made trombones. Franz Hackl plas trumpets, Adam Holzman surdo, bass drum, piano; Scott Robinson a wild variety of reeds, such as contrabass clarinet, tenor rothopone and many more, and Warren Smith has this gigantic list of rhythm instruments to have fun with : giant Chinese barrel drum, bass marimba, and many more. From the list and the label, you already get the gist that this music is to be played in the lower registers, full of klezmer scales in the best Radical Jewish Series tradition, and indeed, you are right. The album is inspired by "the music of the legendary Cantor Pierre Pinchik, ... evoking the ecstasy of cantorial fervor".
If the music did not open such interesting new musical visions at moments, I would not even mention it. Taylor creates great, reverent and intense soundscapes at times, with the solemnity and Weltschmerz you may expect, although often too pompous and heavy-footed. He throws in every style he has ever played in, from the New York Philharmonic over Blood, Sweat & Tears to the Muppetts, and luckily some creative modern music moments. Great instrumental skills do not necessarily make great composers.
 
Состав
David Taylor - tenor trombone, bass trombone, vocals
Warren Smith - giant chinese barrel drum, tympani, contrabass banjo, bass marimba, vibraphone, vibes, drums, balafon, percussion, temple blocks
Scott Robinson - treme-terra, zabumba, contrabass clarinet, bass sax, contrabass sarrusophone, tenor rothophone, contrabass sax, slide sax, bass flute
Adam Holzman - surdo, bass drum, piano, toy piano, synth
Franz Hackl - trumpets
22:07
278
Нет комментариев. Ваш будет первым!