Поиск

(Avant-Garde, Modern Creative, Klezmer) Gary Lucas - Street Of Lost Brothers - 2000, FLAC (tracks+.cue), lossless

(Avant-Garde, Modern Creative, Klezmer) Gary Lucas - Street Of Lost Brothers - 2000, FLAC (tracks+.cue), lossless
Треклист:
Gary Lucas / Street Of Lost Brothers
Жанр: Avant-Garde, Modern Creative, Klezmer
Страна-производитель диска: US
Год издания диска: 2000
Издатель (лейбл): Tzadik
Номер по каталогу: TZ 7145
Страна: US
Аудиокодек: FLAC (*.flac)
Тип рипа: tracks+.cue
Битрейт аудио: lossless
Продолжительность: 48:28
Источник (релизер): waffles.fm
Наличие сканов в содержимом раздачи: нет
Треклист:
1 Yidgal
2 The Opener of the Way
3 That’s My Life
4 Mahzel Means Good Luck
5 It's Like A Wheel
6 European Son
7 I Kill You for Nothing (Marx Brothers Medley)
8 Ride of the Valkyries
9 Let My People Go
10 Level The Playing Field
11 Sh’ma
12 The Tel Aviv Ghetto Fighters Song
 
Лог создания рипа
Exact Audio Copy V0.99 prebeta 4 from 23. January 2008
EAC extraction logfile from 23. December 2008, 18:02
Gary Lucas / Street of Lost Brothers
Used drive : JLMS XJ-HD166S Adapter: 3 ID: 0
Read mode : Secure
Utilize accurate stream : Yes
Defeat audio cache : Yes
Make use of C2 pointers : Yes
Read offset correction : 12
Overread into Lead-In and Lead-Out : No
Fill up missing offset samples with silence : Yes
Delete leading and trailing silent blocks : No
Null samples used in CRC calculations : Yes
Used interface : Installed external ASPI interface
Gap handling : Appended to previous track
Used output format : User Defined Encoder
Selected bitrate : 128 kBit/s
Quality : High
Add ID3 tag : No
Command line compressor : C:\Program Files\Exact Audio Copy\Flac\flac.exe
Additional command line options : -V -8 -T "artist=%a" -T "title=%t" -T "album=%g" -T "date=%y" -T "tracknumber=%n" -T "genre=%m" %s
TOC of the extracted CD
Track | Start | Length | Start sector | End sector
---------------------------------------------------------
1 | 0:00.00 | 3:01.50 | 0 | 13624
2 | 3:01.50 | 2:13.65 | 13625 | 23664
3 | 5:15.40 | 4:22.22 | 23665 | 43336
4 | 9:37.62 | 2:35.13 | 43337 | 54974
5 | 12:13.00 | 4:47.52 | 54975 | 76551
6 | 17:00.52 | 3:10.43 | 76552 | 90844
7 | 20:11.20 | 2:48.45 | 90845 | 103489
8 | 22:59.65 | 4:00.25 | 103490 | 121514
9 | 27:00.15 | 3:34.60 | 121515 | 137624
10 | 30:35.00 | 2:59.32 | 137625 | 151081
11 | 33:34.32 | 10:58.60 | 151082 | 200491
12 | 44:33.17 | 3:54.68 | 200492 | 218109
Track 1
Filename R:\! ! !\Gary Lucas - Street of Lost Brothers\01 - Yigdal.wav
Pre-gap length 0:00:02.00
Peak level 94.4 %
Track quality 99.8 %
Test CRC 803C6D67
Copy CRC 803C6D67
Track not present in AccurateRip database
Copy OK
Track 2
Filename R:\! ! !\Gary Lucas - Street of Lost Brothers\02 - The Opener of the Way.wav
Pre-gap length 0:00:00.01
Peak level 94.4 %
Track quality 99.8 %
Test CRC 737F65F7
Copy CRC 737F65F7
Track not present in AccurateRip database
Copy OK
Track 3
Filename R:\! ! !\Gary Lucas - Street of Lost Brothers\03 - That's My Life.wav
Pre-gap length 0:00:00.02
Peak level 67.6 %
Track quality 99.9 %
Test CRC 9EBCA3DF
Copy CRC 9EBCA3DF
Track not present in AccurateRip database
Copy OK
Track 4
Filename R:\! ! !\Gary Lucas - Street of Lost Brothers\04 - Mahzel Means Good Luck.wav
Peak level 94.4 %
Track quality 100.0 %
Test CRC 4CAB5E8C
Copy CRC 4CAB5E8C
Track not present in AccurateRip database
Copy OK
Track 5
Filename R:\! ! !\Gary Lucas - Street of Lost Brothers\05 - It's Like a Wheel.wav
Peak level 94.4 %
Track quality 100.0 %
Test CRC F5874B58
Copy CRC F5874B58
Track not present in AccurateRip database
Copy OK
Track 6
Filename R:\! ! !\Gary Lucas - Street of Lost Brothers\06 - European Son.wav
Peak level 98.0 %
Track quality 100.0 %
Test CRC 40A1C80E
Copy CRC 40A1C80E
Track not present in AccurateRip database
Copy OK
Track 7
Filename R:\! ! !\Gary Lucas - Street of Lost Brothers\07 - I Kill You for Nothing [Marx Brothers Medley].wav
Peak level 91.5 %
Track quality 99.8 %
Test CRC D2DEC11E
Copy CRC D2DEC11E
Track not present in AccurateRip database
Copy OK
Track 8
Filename R:\! ! !\Gary Lucas - Street of Lost Brothers\08 - Ride of the Valkyries.wav
Peak level 94.4 %
Track quality 99.9 %
Test CRC BD846D33
Copy CRC BD846D33
Track not present in AccurateRip database
Copy OK
Track 9
Filename R:\! ! !\Gary Lucas - Street of Lost Brothers\09 - Let My People Go.wav
Peak level 94.4 %
Track quality 99.9 %
Test CRC 0184310A
Copy CRC 0184310A
Track not present in AccurateRip database
Copy OK
Track 10
Filename R:\! ! !\Gary Lucas - Street of Lost Brothers\10 - Level the Playing Field.wav
Peak level 73.2 %
Track quality 100.0 %
Test CRC 8E11D96D
Copy CRC 8E11D96D
Track not present in AccurateRip database
Copy OK
Track 11
Filename R:\! ! !\Gary Lucas - Street of Lost Brothers\11 - Sh'ma.wav
Peak level 93.5 %
Track quality 99.9 %
Test CRC E2BE9338
Copy CRC E2BE9338
Track not present in AccurateRip database
Copy OK
Track 12
Filename R:\! ! !\Gary Lucas - Street of Lost Brothers\12 - The Tel Aviv Ghetto Fighter's Song.wav
Pre-gap length 0:00:04.52
Peak level 76.1 %
Track quality 99.9 %
Test CRC DC3179E6
Copy CRC DC3179E6
Track not present in AccurateRip database
Copy OK
None of the tracks are present in the AccurateRip database
No errors occurred
End of status report
 
Содержание индексной карты (.CUE)
REM GENRE Ethnic
REM DATE 2000
REM DISCID 910B5C0C
REM COMMENT "ExactAudioCopy v0.99pb4"
PERFORMER "Gary Lucas"
TITLE "Street of Lost Brothers"
FILE "01 - Yigdal.wav" WAVE
TRACK 01 AUDIO
TITLE "Yigdal"
PERFORMER "Gary Lucas"
INDEX 01 00:00:00
TRACK 02 AUDIO
TITLE "The Opener of the Way"
PERFORMER "Gary Lucas"
INDEX 00 03:01:49
FILE "02 - The Opener of the Way.wav" WAVE
INDEX 01 00:00:00
TRACK 03 AUDIO
TITLE "That's My Life"
PERFORMER "Gary Lucas"
INDEX 00 02:13:63
FILE "03 - That's My Life.wav" WAVE
INDEX 01 00:00:00
FILE "04 - Mahzel Means Good Luck.wav" WAVE
TRACK 04 AUDIO
TITLE "Mahzel Means Good Luck"
PERFORMER "Gary Lucas"
INDEX 01 00:00:00
FILE "05 - It's Like a Wheel.wav" WAVE
TRACK 05 AUDIO
TITLE "It's Like a Wheel"
PERFORMER "Gary Lucas"
INDEX 01 00:00:00
FILE "06 - European Son.wav" WAVE
TRACK 06 AUDIO
TITLE "European Son"
PERFORMER "Gary Lucas"
INDEX 01 00:00:00
FILE "07 - I Kill You for Nothing [Marx Brothers Medley].wav" WAVE
TRACK 07 AUDIO
TITLE "I Kill You for Nothing [Marx Brothers Medley]"
PERFORMER "Gary Lucas"
INDEX 01 00:00:00
FILE "08 - Ride of the Valkyries.wav" WAVE
TRACK 08 AUDIO
TITLE "Ride of the Valkyries"
PERFORMER "Gary Lucas"
INDEX 01 00:00:00
FILE "09 - Let My People Go.wav" WAVE
TRACK 09 AUDIO
TITLE "Let My People Go"
PERFORMER "Gary Lucas"
INDEX 01 00:00:00
FILE "10 - Level the Playing Field.wav" WAVE
TRACK 10 AUDIO
TITLE "Level the Playing Field"
PERFORMER "Gary Lucas"
INDEX 01 00:00:00
FILE "11 - Sh'ma.wav" WAVE
TRACK 11 AUDIO
TITLE "Sh'ma"
PERFORMER "Gary Lucas"
INDEX 01 00:00:00
TRACK 12 AUDIO
TITLE "The Tel Aviv Ghetto Fighter's Song"
PERFORMER "Gary Lucas"
INDEX 00 10:54:21
FILE "12 - The Tel Aviv Ghetto Fighter's Song.wav" WAVE
INDEX 01 00:00:00
 
Лог проверки качества
d:\>d:\aucdtect -d/-m0 d:\zzz\*.wav
auCDtect: CD records authenticity detector, version 0.8.2
Copyright (c) 2004 Oleg Berngardt. All rights reserved.
Copyright (c) 2004 Alexander Djourik. All rights reserved.
------------------------------------------------------------
Processing file: [01. Yigdal.wav]
------------------------------------------------------------
This track looks like CDDA with probability 100%
------------------------------------------------------------
Processing file: [02. The Opener of the Way.wav]
------------------------------------------------------------
This track looks like CDDA with probability 100%
------------------------------------------------------------
Processing file: [03. That's My Life.wav]
------------------------------------------------------------
This track looks like CDDA with probability 100%
------------------------------------------------------------
Processing file: [04. Mahzel Means Good Luck.wav]
------------------------------------------------------------
This track looks like CDDA with probability 100%
------------------------------------------------------------
Processing file: [05. It's Like a Wheel.wav]
------------------------------------------------------------
Could not qualify the source of this track.
------------------------------------------------------------
Processing file: [06. European Son.wav]
------------------------------------------------------------
This track looks like CDDA with probability 92%
------------------------------------------------------------
Processing file: [07. I Kill You for Nothing [Marx Brothers Medley].wav]
------------------------------------------------------------
This track looks like CDDA with probability 100%
------------------------------------------------------------
Processing file: [08. Ride of the Valkyries.wav]
------------------------------------------------------------
This track looks like MPEG with probability 100%
------------------------------------------------------------
Processing file: [09. Let My People Go.wav]
------------------------------------------------------------
This track looks like CDDA with probability 100%
------------------------------------------------------------
Processing file: [10. Level the Playing Field.wav]
------------------------------------------------------------
This track looks like CDDA with probability 99%
------------------------------------------------------------
Processing file: [11. Sh'ma.wav]
------------------------------------------------------------
Could not qualify the source of this track.
------------------------------------------------------------
Processing file: [12. The Tel Aviv Ghetto Fighter's Song.wav]
------------------------------------------------------------
This track looks like MPEG with probability 100%
------------------------------------------------------------
Final Conclusion:
------------------------------------------------------------
Could not qualify the source of these tracks.
 
Скриншот спектра частот
Доп. информация:
 
AMG Review
Lucas' second album for John Zorn's Tzadik label continued in the same vein as the first (Busy Being Born) with one or two variations. The opening, traditional "Yigdal" is a rousing, dance-oriented number featuring Zorn on alto sax, and this is quickly followed by one of Lucas' almost-patented, intricate, and lovely solo guitar pieces, weaving various folk patterns into a delightful sonic fabric. The bulk of the album consists of further elaborations on Jewish themes (or anti-Jewish, as Wagner's "Ride of the Valkyries" is strained through the Lucas wringer), blues, and folk songs. The unusual cut, compared to prior releases, is the largely improvised duo with keyboardist Walter Horn. Based on a traditional Hebrew song, the pair venture into far freer territory than Lucas normally explores. Listeners who have known and enjoyed his work over the years might still admit that he gets into a series of ruts (however pleasurable); tracks like "Sh'ma" perhaps offer hope of a way out.
 
Состав
Ernie Brooks Bass
Jason Candler Bass, Engineer
Peter Eng Bass
Larry Fine Vocals
Hank Frisch Harmonica
Jesper Gadelius Guitar
Walter Horn Arranger, Guitar (Synthesizer), Piano, Sample Arrangements, Sampling, Synthesizer
Kenny Hurwitz Vocals
Jonathan Kane Drums
Kenny Vocals
Gary Lucas Arranger, Engineer, Guitar, Guitar (Acoustic), Guitar (Electric), Guitar (Steel), Lap Steel Guitar, Liner Notes, Producer, Slide Guitar, Vocals
Aldo Tsang Drums
23:07
288
Нет комментариев. Ваш будет первым!