Поиск

(Klezmer, Jazz, Avant) David Krakauer - Klezmer Madness! (Tzadik: Radical Jewish Culture - First Album) - 1995, FLAC (tracks+.cue), lossless

Треклист:
David Krakauer - Klezmer Madness! (Tzadik: Radical Jewish Culture)

Жанр: Klezmer, Jazz, Avant
Год выпуска диска: 1995
Производитель диска: USA
Лейбл: Tzadik (Radikal Jewish Culture)
Аудио кодек: FLAC
Тип рипа: tracks+.cue
Битрейт аудио: lossless
Продолжительность: 49 min
Трэклист:
Klezmer Madness!
1. Africa Bulgar
2. Bocota Bulgar
3. A Few Bowls Terkish
4. At The Rabbi's Table
5. Doina / Death March Suite
6. Funky Dave
7. The Ballad Of Chernobyl
8. Gong Doina
9. Living With The H Tune
10. Rachab
Доп. информация: Рип сделан с оригинального CD TZ7101
Музыканты:
David Krakauer - clarinet and bass clarinet
Michael Alpert - accordion and vocals
David Licht - drums
Гости:
Anthony Coleman - keyboard sampler (4, 7)
Adam Rogers - guitar (6)
Vallenato group Los Macondos de Colombia: Guillermo (Willie) Penate - guiro; Juan Ortega - timbales; Oscar Ortega - congas (2)
Ну не мог альбом, числящийся под номером 1 в серии Radical Jewish Culture другим... Чудесный кларнетист из Klezmatics Давид Кракауэр записал очень, очень еврейский альбом... Но... Это Tzadik, следовательно и некоторые трансформации здесь имеются, соответствующие зорновским принципам... Примечательна и песня-плач о Чернобыле (автор Майкл Альперт)... Диск я приобрел лет 9 назад, ну и заслушал практически до дыр...
 
EAC Log
Exact Audio Copy V0.99 prebeta 4 from 23. January 2008
EAC extraction logfile from 11. October 2008, 10:10
David Krakauer / Klezmer Madness
Used drive : TSSTcorpCD/DVDW SH-W162C Adapter: 0 ID: 0
Read mode : Secure
Utilize accurate stream : Yes
Defeat audio cache : Yes
Make use of C2 pointers : No
Read offset correction : 48
Overread into Lead-In and Lead-Out : No
Fill up missing offset samples with silence : Yes
Delete leading and trailing silent blocks : No
Null samples used in CRC calculations : Yes
Used interface : Installed external ASPI interface
Gap handling : Appended to previous track
Used output format : User Defined Encoder
Selected bitrate : 768 kBit/s
Quality : High
Add ID3 tag : No
Command line compressor : C:\Program Files\Exact Audio Copy\FLAC\FLAC.EXE
Additional command line options : -6 -V -T "ARTIST=%a" -T "TITLE=%t" -T "ALBUM=%g" -T "DATE=%y" -T "TRACKNUMBER=%n" -T "GENRE=%m" -T "COMMENT=%e" %s -o %d
Use compression offset : 0
TOC of the extracted CD
Track | Start | Length | Start sector | End sector
---------------------------------------------------------
1 | 0:00.00 | 3:43.05 | 0 | 16729
2 | 3:43.05 | 4:06.32 | 16730 | 35211
3 | 7:49.37 | 4:37.20 | 35212 | 56006
4 | 12:26.57 | 5:14.30 | 56007 | 79586
5 | 17:41.12 | 10:32.42 | 79587 | 127028
6 | 28:13.54 | 5:53.31 | 127029 | 153534
7 | 34:07.10 | 5:19.12 | 153535 | 177471
8 | 39:26.22 | 2:19.53 | 177472 | 187949
9 | 41:46.00 | 6:03.65 | 187950 | 215239
10 | 47:49.65 | 1:27.62 | 215240 | 221826
Track 1
Filename C:\David Krakauer\1995, Klezmer Madness!\01 - Africa Bulgar.wav
Pre-gap length 0:00:02.00
Peak level 94.6 %
Track quality 100.0 %
Test CRC 802FFFDB
Copy CRC 802FFFDB
Copy OK
Track 2
Filename C:\David Krakauer\1995, Klezmer Madness!\02 - Bogota Bulgar.wav
Peak level 94.6 %
Track quality 100.0 %
Test CRC 497EE04B
Copy CRC 497EE04B
Copy OK
Track 3
Filename C:\David Krakauer\1995, Klezmer Madness!\03 - A Few Bowls Terkish.wav
Peak level 94.6 %
Track quality 99.9 %
Test CRC 5228626D
Copy CRC 5228626D
Copy OK
Track 4
Filename C:\David Krakauer\1995, Klezmer Madness!\04 - At The Rabbi's Table (Baym Rebns Sude).wav
Peak level 94.6 %
Track quality 100.0 %
Test CRC 9C8846D9
Copy CRC 9C8846D9
Copy OK
Track 5
Filename C:\David Krakauer\1995, Klezmer Madness!\05 - Doina - Death March Suite.wav
Peak level 94.6 %
Track quality 99.9 %
Test CRC 99B5520D
Copy CRC 99B5520D
Copy OK
Track 6
Filename C:\David Krakauer\1995, Klezmer Madness!\06 - Funky Dave.wav
Peak level 94.6 %
Track quality 100.0 %
Test CRC 10840D86
Copy CRC 10840D86
Copy OK
Track 7
Filename C:\David Krakauer\1995, Klezmer Madness!\07 - The Ballad Of Chernobyl.wav
Peak level 94.6 %
Track quality 100.0 %
Test CRC F813F2E2
Copy CRC F813F2E2
Copy OK
Track 8
Filename C:\David Krakauer\1995, Klezmer Madness!\08 - Gong Doina.wav
Peak level 56.4 %
Track quality 100.0 %
Test CRC 3C4213C4
Copy CRC 3C4213C4
Copy OK
Track 9
Filename C:\David Krakauer\1995, Klezmer Madness!\09 - Living With The H Tune.wav
Peak level 94.6 %
Track quality 100.0 %
Test CRC 2A3DDA18
Copy CRC 2A3DDA18
Copy OK
Track 10
Filename C:\David Krakauer\1995, Klezmer Madness!\10 - Rachab.wav
Peak level 65.3 %
Track quality 100.0 %
Test CRC 11BE36B7
Copy CRC 11BE36B7
Copy OK
No errors occurred
End of status report
 
audiochecker
AUDIOCHECKER v1.2 - by Dester - opdester@freemail.hu
~~~~~~~~~~~~~~~~~
01 -===- C:\David Krakauer\1995, Klezmer Madness!\01 - Africa Bulgar.flac
Extracted successfully
Conclusion: This track looks like CDDA with probability 100%
02 -===- C:\David Krakauer\1995, Klezmer Madness!\02 - Bogota Bulgar.flac
Extracted successfully
Conclusion: This track looks like CDDA with probability 100%
03 -===- C:\David Krakauer\1995, Klezmer Madness!\03 - A Few Bowls Terkish.flac
Extracted successfully
Conclusion: This track looks like CDDA with probability 100%
04 -===- C:\David Krakauer\1995, Klezmer Madness!\04 - At The Rabbi's Table (Baym Rebns Sude).flac
Extracted successfully
Conclusion: This track looks like CDDA with probability 62%
05 -===- C:\David Krakauer\1995, Klezmer Madness!\05 - Doina - Death March Suite.flac
Extracted successfully
Conclusion: This track looks like CDDA with probability 100%
06 -===- C:\David Krakauer\1995, Klezmer Madness!\06 - Funky Dave.flac
Extracted successfully
Conclusion: This track looks like CDDA with probability 100%
07 -===- C:\David Krakauer\1995, Klezmer Madness!\07 - The Ballad Of Chernobyl.flac
Extracted successfully
Conclusion: This track looks like CDDA with probability 100%
08 -===- C:\David Krakauer\1995, Klezmer Madness!\08 - Gong Doina.flac
Extracted successfully
Conclusion: This track looks like CDDA with probability 100%
09 -===- C:\David Krakauer\1995, Klezmer Madness!\09 - Living With The H Tune.flac
Extracted successfully
Conclusion: This track looks like CDDA with probability 100%
10 -===- C:\David Krakauer\1995, Klezmer Madness!\10 - Rachab.flac
Extracted successfully
Conclusion: This track looks like CDDA with probability 100%
Мои раздачи
04:09
290
Нет комментариев. Ваш будет первым!