Поиск

(Brazilian jazz) Luciana Souza - Norte e Sul - North and South - 2003, APE (image+.cue), lossless

(Brazilian jazz) Luciana Souza - Norte e Sul - North and South - 2003, APE (image+.cue), lossless
Luciana Souza - Norte e Sul - North and South
Жанр: Brazilian jazz
Год выпуска диска: 2003
Производитель диска: Brasilia
Аудио кодек: APE
Тип рипа: image+.cue
Битрейт аудио: lossless
Продолжительность: 43'27"
Трэклист:
1. Chega de Saudade
2. I Shall Wait
3. All Of Me
4. When Your Lover Has Gone
5. Corcovado
6. No Wonder
7. Se E Tarde Me Perdoa
8. Never Let Me Go
Доп. информация:
 
Отчет EAC
Exact Audio Copy V0.99 prebeta 3 from 28. July 2007
Отчёт EAC об извлечении, выполненном 26. октября 2008, 22:23
Luciana Souza / Norte E Sul - North And South
Дисковод: PHILIPS DVD-RAM SDVD8821 Adapter: 0 ID: 1
Режим чтения : Достоверность
Использование точного потока : Да
Отключение кэша аудио : Да
Использование указателей C2 : Нет
Коррекция смещения при чтении : 6
Способность читать области Lead-in и Lead-out : Нет
Заполнение пропущенных сэмплов тишиной : Да
Удаление блоков с тишиной в начале и конце : Нет
При вычислениях CRC использовались нулевые сэмплы : Нет
Интерфейс : Установленный внешний ASPI-интерфейс
Выходной формат : Внутренние WAV-операции
Формат сэмплов : 44.100 Гц; 16 бит; стерео
TOC извлечённого CD
Трек | Старт | Длительность | Начальный сектор | Конечный сектор
---------------------------------------------------------------------
1 | 0:00.00 | 4:02.33 | 0 | 18182
2 | 4:02.33 | 6:17.03 | 18183 | 46460
3 | 10:19.36 | 5:59.17 | 46461 | 73402
4 | 16:18.53 | 5:08.59 | 73403 | 96561
5 | 21:27.37 | 6:13.61 | 96562 | 124597
6 | 27:41.23 | 4:58.44 | 124598 | 146991
7 | 32:39.67 | 3:05.58 | 146992 | 160924
8 | 35:45.50 | 7:41.51 | 160925 | 195550
Характеристики диапазона извлечения и сообщения об ошибках
Выбранный диапазон
Имя файла C:\Luciana Souza - Norte E Sul - North And South.wav
Пиковый уровень 99.1 %
Качество диапазона 100.0 %
CRC теста 04C5ACAC
CRC копии 04C5ACAC
Копирование... OK
Ошибок не произошло
Конец отчёта
04:09
475
Нет комментариев. Ваш будет первым!