Поиск

(Jazz/World Fusion) Paul Winter - Canyon - 1985, FLAC (image + .cue), lossless

(Jazz/World Fusion) Paul Winter - Canyon - 1985, FLAC (image + .cue), lossless
Треклист:
Paul Winter - Canyon
Страна: USA
Жанр: Jazz/World Fusion
Год выпуска: 1985
Формат: FLAC (image + .cue)
Битрейт аудио: lossless
Продолжительность: 40:55
Paul Winter soprano sax
Paul Halley keyboards
David Darling cello
Eugene Friesen cello
Paul McCandless oboe
John Clark French horn
Glen Velez percussion
Nancy Rumbel rattle
Grand Canyon Sunrise
Morning Echoes
Bright Angel
Raven Dance
Bedrock Cathedral
River Run
Elves' Chasm
Sockdolager
Air
Grand Canyon Sunset
 
EAC Report
Exact Audio Copy V0.99 prebeta 4 from 23. January 2008
EAC extraction logfile from 30. March 2008, 19:28
Paul Winter / Canyon
Used drive : MATSHITADVD-RAM UJ-840S Adapter: 1 ID: 0
Read mode : Secure
Utilize accurate stream : Yes
Defeat audio cache : Yes
Make use of C2 pointers : No
Read offset correction : 102
Overread into Lead-In and Lead-Out : No
Fill up missing offset samples with silence : Yes
Delete leading and trailing silent blocks : No
Null samples used in CRC calculations : No
Used interface : Installed external ASPI interface
Used output format : User Defined Encoder
Selected bitrate : 1024 kBit/s
Quality : High
Add ID3 tag : No
Command line compressor : C:\Program Files\Exact Audio Copy\FLAC\FLAC.EXE
Additional command line options : -6 -V -T "ARTIST=%a" -T "TITLE=%t" -T "ALBUM=%g" -T "DATE=%y" -T "TRACKNUMBER=%n" -T "GENRE=%m" -T "COMMENT=%e" %s -o %d
TOC of the extracted CD
Track | Start | Length | Start sector | End sector
---------------------------------------------------------
1 | 0:00.00 | 7:20.15 | 0 | 33014
2 | 7:20.15 | 2:35.07 | 33015 | 44646
3 | 9:55.22 | 3:57.33 | 44647 | 62454
4 | 13:52.55 | 2:35.42 | 62455 | 74121
5 | 16:28.22 | 2:09.03 | 74122 | 83799
6 | 18:37.25 | 7:14.50 | 83800 | 116399
7 | 25:52.00 | 2:11.20 | 116400 | 126244
8 | 28:03.20 | 4:12.32 | 126245 | 145176
9 | 32:15.52 | 3:36.58 | 145177 | 161434
10 | 35:52.35 | 5:02.22 | 161435 | 184106
Range status and errors
Selected range
Filename F:\u\Paul Winter\Paul Winter - Canyon.wav
Peak level 94.4 %
Range quality 100.0 %
Copy CRC 2EEB8884
Copy OK
No errors occurred
AccurateRip summary
Track 1 not present in database
Track 2 not present in database
Track 3 not present in database
Track 4 not present in database
Track 5 not present in database
Track 6 not present in database
Track 7 not present in database
Track 8 not present in database
Track 9 not present in database
Track 10 not present in database
None of the tracks are present in the AccurateRip database
End of status report
00:53
339
Нет комментариев. Ваш будет первым!