Поиск

(Jazz) Jiří Jirmal Trio - Jazzové imprese (классическая гитара в джазе) - 2005, FLAC (tracks)

Jiří Jirmal Trio - Jazzové imprese (Классическая гитара в джазе)
Страна: Чехия
Жанр: Jazz
Год выпуска: 2005
Формат: FLAC (tracks)
Трэклист:
1 - Intermezzo Play Bossa Nova
2 - Melody in E
3 - Joy of Bossa Nova
4 - Prelude in Jazz
5 - Milonga Amorosa
6 - Promenade
7 - Samba Carnival
Доп. информация:
Jiří Jirmal - чешский гитарист, всемирно известный преподаватель музыки и композитор. Является профессором Государственной Консерватории в Праге и высшей школы музыки в Саабрукене (Германия). Родился в 1925 году в Праге. Играл на гитаре с молодых лет, в особенности джаз, позже получил профессиональное классическое музыкальное образование в государственной консерватории, начав свою концертную деятельность еще во время обучения.
Он демонстрирует свои знания как в классической, так и в джазовой музыке наравне со способностью импровизировать, на телевидении, радио, в киностудиях, на концертах. В 1963 известный немецкий гитарист Sigfried Behrend приглашает его в Германию на гастроли и для преподавания в музыкальном университете Саабрукена. В то же время Jiří изучает табулатуры гитарной музыки времен Барокко и эпохи Возрождения.
В 1965 году Jiří Jirmal становится действующим профессором Государственной Консерватории в Праге. Вскоре гитарист попадает в серьезную аварию и прекращает давать концерты, полностью посвятив себя преподавательской, публицистической и композиторской деятельности, сотрудничая с издательскими домами "Editio Barenreiter" в Праге и "Lemoine" в Париже. Позже его ученик, Vladimír Mikulka, выигрывает самый престижный международный конкурс гитаристов в мире "Radio France" в Париже. Учениками Jiří были еще 11 финалистов и множество участников этого и других конкурсов.
В 1999 издается книга "Пути чешской гитары", в которой Stanislav Barek обобщил свои беседы с Jiří Jirmal о его жизни.
В 2000 выходит первый диск в честь 75-летия композитора.


 
LOG
EAC extraction logfile from 4. April 2008, 20:14 for CD
Jiri Jirmal Trio / Jazzove imprese (kytara)
Used drive : _NEC DVD_RW ND-4570A Adapter: 1 ID: 0
Read mode : Secure with NO C2, accurate stream, disable cache
Read offset correction : 48
Overread into Lead-In and Lead-Out : No
Used output format : D:\downloads\basket\eac-0.95b3\FLAC\flac.exe (User Defined Encoder)
128 kBit/s
Additional command line options : -V -8 -T "artist=%a" -T "title=%t" -T "album=%g" -T "date=%y" -T "tracknumber=%n" -T "genre=%m" %s
Other options :
Fill up missing offset samples with silence : Yes
Delete leading and trailing silent blocks : No
Installed external ASPI interface
Track 1
Filename D:\downloads\seed\Jazz Impressions\01 - Intermezzo Play Bossa Nova.wav
Pre-gap length 0:00:02.00
Peak level 94.4 %
Track quality 99.9 %
Test CRC 933DB2E3
Copy CRC 933DB2E3
Copy OK
Track 2
Filename D:\downloads\seed\Jazz Impressions\02 - Melody in E.wav
Pre-gap length 0:00:03.97
Peak level 94.4 %
Track quality 99.9 %
Test CRC 38EB40D1
Copy CRC F96AE592
Copy OK
Track 3
Filename D:\downloads\seed\Jazz Impressions\03 - Joy of Bossa Nova.wav
Pre-gap length 0:00:03.25
Peak level 94.4 %
Track quality 99.9 %
Test CRC A69B2A29
Copy CRC A69B2A29
Copy OK
Track 4
Filename D:\downloads\seed\Jazz Impressions\04 - Prelude in Jazz.wav
Pre-gap length 0:00:02.25
Peak level 94.4 %
Track quality 100.0 %
Test CRC BAC96F47
Copy CRC BAC96F47
Copy OK
Track 5
Filename D:\downloads\seed\Jazz Impressions\05 - Milonga Amorosa.wav
Pre-gap length 0:00:03.06
Peak level 94.4 %
Track quality 100.0 %
Test CRC 75B56ECA
Copy CRC 13C65772
Copy OK
Track 6
Filename D:\downloads\seed\Jazz Impressions\06 - Promenade.wav
Pre-gap length 0:00:03.02
Peak level 94.4 %
Track quality 100.0 %
Test CRC FD559CB5
Copy CRC 381A04E7
Copy OK
Track 7
Filename D:\downloads\seed\Jazz Impressions\07 - Samba Carnival.wav
Pre-gap length 0:00:01.88
Peak level 94.4 %
Track quality 100.0 %
Test CRC B2B56EB6
Copy CRC B2B56EB6
Copy OK
No errors occured
End of status report
01:52
366
Нет комментариев. Ваш будет первым!