Поиск

(Jazz/Nu-bossa/Brazilian Jazz) Vinicius Cantuaria - Vinicius - 2001, FLAC (image+.cue), lossless

(Jazz/Nu-bossa/Brazilian Jazz) Vinicius Cantuaria - Vinicius - 2001, FLAC (image+.cue), lossless
Треклист:
Vinicius Cantuaria - Vinicius
Жанр: Jazz/Nu-bossa/Brazilian Jazz
Год выпуска диска: 2001
Производитель диска: Brazil
Аудио кодек: FLAC
Тип рипа: image+.cue
Битрейт аудио: lossless
Продолжительность: 53:53
Трэклист:
01. Cliche do Cliche [5:01.40]
02. Ela e Carioca [4:48.02]
03. Agua Rasa [3:48.23]
04. Ordinaria [4:55.30]
05. Quase Choro [4:46.22]
06. Rio [4:07.63]
07. Normal [4:25.65]
08. Nova de Sete [4:45.25]
09. Irapuru [4:45.57]
10. Caju [4:17.00]
11. Insects Are Black [4:13.55]
12. Rio [Special Mix by David Byrne] [3:58.03]
Доп. информация:
Vinicius Cantuaria - guitars, percussion, keyboards, vocals
Bill Frisell - guitar (tracks# 2,5,8)
Marc Ribot - guitar (track# 6)
David Byrne - guitar, vocal (track# 6)
Jenny Scheinman - violin (tracks# 1,4,7,9,10)
Michael Leonhart - trumpet (tracks# 4,6)
Brad Mehldau - piano (tracks# 5,8)
Peter Scherer - keyboards (tracks# 7,11)
Marc Johnson - bass (tracks# 2,5,8,10)
Joey Baron - drums (tracks# 1,3,6,10,11)
Paulo Braga - percussion, drums (tracks# 2,4,7,9,10)
Caetano Veloso - vocals (tracks# 3)
 
скрытый текст
Exact Audio Copy V0.99 prebeta 4 from 23. January 2008
EAC extraction logfile from 29. August 2008, 11:32
Vinicius Cantuaria / Vinicius
Used drive : HL-DT-STDVDRAM GSA-T20N Adapter: 0 ID: 0
Read mode : Secure
Utilize accurate stream : Yes
Defeat audio cache : Yes
Make use of C2 pointers : No
Read offset correction : 667
Overread into Lead-In and Lead-Out : No
Fill up missing offset samples with silence : Yes
Delete leading and trailing silent blocks : No
Null samples used in CRC calculations : No
Used interface : Native Win32 interface for Win NT & 2000
Used output format : User Defined Encoder
Selected bitrate : 768 kBit/s
Quality : High
Add ID3 tag : No
Command line compressor : C:\Program Files\Exact Audio Copy\FLAC\FLAC.EXE
Additional command line options : -6 -V -T "ARTIST=%a" -T "TITLE=%t" -T "ALBUM=%g" -T "DATE=%y" -T "TRACKNUMBER=%n" -T "GENRE=%m" -T "COMMENT=%e" %s -o %d
TOC of the extracted CD
Track | Start | Length | Start sector | End sector
---------------------------------------------------------
1 | 0:00.00 | 5:01.40 | 0 | 22614
2 | 5:01.40 | 4:48.02 | 22615 | 44216
3 | 9:49.42 | 3:48.23 | 44217 | 61339
4 | 13:37.65 | 4:55.30 | 61340 | 83494
5 | 18:33.20 | 4:46.22 | 83495 | 104966
6 | 23:19.42 | 4:07.63 | 104967 | 123554
7 | 27:27.30 | 4:25.65 | 123555 | 143494
8 | 31:53.20 | 4:45.25 | 143495 | 164894
9 | 36:38.45 | 4:45.57 | 164895 | 186326
10 | 41:24.27 | 4:17.00 | 186327 | 205601
11 | 45:41.27 | 4:13.55 | 205602 | 224631
12 | 49:55.07 | 3:58.03 | 224632 | 242484
Range status and errors
Selected range
Filename C:\Documents and Settings\Necmi\My Documents\Uploads\Vinicius Cantuaria - Vinicius\Vinicius Cantuaria - Vinicius.wav
Peak level 99.8 %
Range quality 100.0 %
Copy CRC 380ECCA0
Copy OK
No errors occurred
AccurateRip summary
Track 1 accurately ripped (confidence 1) [D607B716]
Track 2 accurately ripped (confidence 1) [D715EE7C]
Track 3 accurately ripped (confidence 1) [F872B20D]
Track 4 accurately ripped (confidence 1) [93A2DC15]
Track 5 accurately ripped (confidence 1) [FD8788BE]
Track 6 accurately ripped (confidence 1) [A16B6191]
Track 7 accurately ripped (confidence 1) [0BD240D4]
Track 8 accurately ripped (confidence 1) [38770B29]
Track 9 accurately ripped (confidence 1) [921EC574]
Track 10 accurately ripped (confidence 1) [CB501993]
Track 11 accurately ripped (confidence 1) [136C6F74]
Track 12 accurately ripped (confidence 1) [435492B0]
All tracks accurately ripped
End of status report
По всем вопросам пишите личное сообщение пользователю M0p94ok.
08:01
180
Нет комментариев. Ваш будет первым!