Поиск

(Jazz/Nu-Bossa/Brazilian Jazz) Vinicius Cantuaria - Silva - 2005, APE (image+.cue), lossless

(Jazz/Nu-Bossa/Brazilian Jazz) Vinicius Cantuaria - Silva - 2005, APE (image+.cue), lossless
Треклист:
Vinicius Cantuaria - Silva
Жанр: Jazz/Nu-Bossa/Brazilian Jazz
Год выпуска диска: 2005
Производитель диска: Brazil
Аудио кодек: APE
Тип рипа: image+.cue
Битрейт аудио: lossless
Продолжительность: 46:19
Трэклист:
1 A Dor (Cantuaria) 5:18
2 Reentry (Cantuaria, Lindsay) 4:34
3 The Bridge (Cantuaria, Miyake) 4:01
4 Pena de Mim (Cantuaria, Lindsay) 4:42
5 Saudades de Voce (Cantuaria) 3:23
6 Evening Rain (Cantuaria, Lindsay) 3:43
7 Paraguai (Cantuaria) 5:04
8 A Felicidade (DeMoraes, Jobim) 4:38
9 Alegria (Azevedo, Cantuaria) 4:48
10 Nunca Mais (Cantuaria) 1:52
11 India (Cantuaria) 4:11
Доп. информация:
Bernardo Bessler Violin
Michel Bessler Violin
Vinicius Cantuaria Guitar (Acoustic), Percussion, Cymbals, Vocals
Michael Leonhart Trumpet
Arto Lindsay English Translations
Jun Miyake Flugelhorn, Sampling, Fender Rhodes
Sidinho Moreira Percussion
Hugo Vargas Pilger Cello
Maria Springuel Viola
 
скрытый текст
Exact Audio Copy V0.99 prebeta 3 from 28. July 2007
Отчёт EAC об извлечении, выполненном 27. января 2008, 21:14
Vicious Cantuaria / Silva
Дисковод: MATSHITADVD-RAM UJ-851S Adapter: 0 ID: 0
Режим чтения : Достоверность
Использование точного потока : Да
Отключение кэша аудио : Да
Использование указателей C2 : Нет
Комбинированное смещение чтения/записи : 0
Способность читать области Lead-in и Lead-out : Нет
Заполнение пропущенных сэмплов тишиной : Да
Удаление блоков с тишиной в начале и конце : Нет
При вычислениях CRC использовались нулевые сэмплы : Да
Интерфейс : Установленный внешний ASPI-интерфейс
Выходной формат : Внутренние WAV-операции
Формат сэмплов : 44.100 Гц; 16 бит; стерео
TOC извлечённого CD
Трек | Старт | Длительность | Начальный сектор | Конечный сектор
---------------------------------------------------------------------
1 | 0:00.00 | 5:18.53 | 0 | 23902
2 | 5:18.53 | 4:34.04 | 23903 | 44456
3 | 9:52.57 | 4:01.08 | 44457 | 62539
4 | 13:53.65 | 4:42.40 | 62540 | 83729
5 | 18:36.30 | 3:23.45 | 83730 | 98999
6 | 22:00.00 | 3:43.17 | 99000 | 115741
7 | 25:43.17 | 5:04.37 | 115742 | 138578
8 | 30:47.54 | 4:38.03 | 138579 | 159431
9 | 35:25.57 | 4:48.52 | 159432 | 181083
10 | 40:14.34 | 1:52.61 | 181084 | 189544
11 | 42:07.20 | 4:11.45 | 189545 | 208414
Характеристики диапазона извлечения и сообщения об ошибках
Выбранный диапазон
Имя файла C:\MUSIC\APE\Vicious Cantuaria - Silva(2005)\Vicious Cantuaria - Silva.wav
Пиковый уровень 99.8 %
Качество диапазона 100.0 %
CRC копии BDC05265
Копирование... OK
Ошибок не произошло
Конец отчёта
Download available for power users only.
08:00
167
Нет комментариев. Ваш будет первым!