Поиск

(Jazz/Latin Lazz) Ron Carter Sextet - Orfeu - 1999, FLAC (image+.cue), lossless

(Jazz/Latin Lazz) Ron Carter Sextet - Orfeu - 1999, FLAC (image+.cue), lossless
Треклист:
Ron Carter Sextet - Orfeu
Жанр: Jazz/Latin Lazz
Год выпуска диска: 1999
Производитель диска: U.S.A.
Аудио кодек: FLAC
Тип рипа: image+.cue
Битрейт аудио: lossless
Продолжительность: 45:35
Трэклист:
1. SAUDADE (R.Carter) 6:33
2. MANHA DE CARNAVAL (Bonfa-Maria) 5:56
3. POR-DO-SOL (R.Carter) 5:17
4. GOIN’ HOME (Dvorak-Carter) 7:27
5. 1:17 SPECIAL (R.Carter) 6:52
6. OBRIGADO (R.Carter) 5:33
7. SAMBA DE ORFEU (Bonfa-Maria) 7:37
Доп. информация:
RON CARTER- bass
HOUSTON PERSON- tenor sax
BILL FRISELL- guitar
STEPHEN SCOTT- piano
PAYTON CROSSLEY- drums
STEVE KROON- percussion
Recorded February 1999
За альбом большое спасибо уважаемой gorall007.
 
Отчёт EAC
Exact Audio Copy V0.99 prebeta 4 from 23. January 2008
EAC extraction logfile from 6. May 2009, 16:47
Ron Carter Sextet / Orfeu
Used drive : PLEXTOR DVDR PX-800A Adapter: 1 ID: 1
Read mode : Secure
Utilize accurate stream : Yes
Defeat audio cache : Yes
Make use of C2 pointers : No
Read offset correction : 48
Overread into Lead-In and Lead-Out : No
Fill up missing offset samples with silence : Yes
Delete leading and trailing silent blocks : No
Null samples used in CRC calculations : Yes
Used interface : Installed external ASPI interface
Used output format : Internal WAV Routines
Sample format : 44.100 Hz; 16 Bit; Stereo
TOC of the extracted CD
Track | Start | Length | Start sector | End sector
---------------------------------------------------------
1 | 0:00.00 | 6:34.37 | 0 | 29586
2 | 6:34.37 | 5:57.25 | 29587 | 56386
3 | 12:31.62 | 5:17.00 | 56387 | 80161
4 | 17:48.62 | 7:27.50 | 80162 | 113736
5 | 25:16.37 | 6:53.00 | 113737 | 144711
6 | 32:09.37 | 5:34.38 | 144712 | 169799
7 | 37:44.00 | 7:37.00 | 169800 | 204074
Range status and errors
Selected range
Filename E:\Ron Carter Images\Ron Carter\2\Orfeu\Orfeu.wav
Peak level 99.8 %
Range quality 100.0 %
Copy CRC 62EE6E48
Copy OK
No errors occurred
AccurateRip summary
Track 1 not present in database
Track 2 not present in database
Track 3 not present in database
Track 4 not present in database
Track 5 not present in database
Track 6 not present in database
Track 7 not present in database
None of the tracks are present in the AccurateRip database
End of status report
07:08
380
Нет комментариев. Ваш будет первым!