Вы используете незарегистрированную версию компонента "Вкладки"!

Поиск

(Jazz, Bossa Nova) Charlie Byrd - Discography (+Laurindo Almeida) (14 CD) - (1958-1985), FLAC (image+.cue), lossless

(Jazz, Bossa Nova) Charlie Byrd - Discography (+Laurindo Almeida) (14 CD) - (1958-1985), FLAC (image+.cue), lossless
Треклист:
Charlie Byrd - Discography (+Laurindo Almeida) (14 CD) - (1958-1985)
Жанр: Jazz, Bossa Nova
Аудио кодек: FLAC
Тип рипа: image+.cue
Информация об исполнителе: БЕРД ЧАРЛИ (Charlie Byrd , полное имя Чарлз Л. Берд) (р. 16 сентября 1925, Саффолк, Вирджиния — 30 ноября 1999), американский джазовый музыкант (гитара), руководитель ансамбля.
Первые уроки музыки получил у своего отца. С середины 1940-х годов начал выступать в составе различных джазовых ансамблей и оркестров, в том числе с Солом Йагедом (1947), у Джо Марсалы и у Барбары Кэрролл (1948), с Фредди Слэком (1949). В 1950 серьезно занялся освоением классической гитарной техники, затем продолжил музыкальное образование в Италии у Андраса Сеговии (1954). С 1957 руководил собственным ансамблем в Вашингтоне. В 1959 стал членом оркестра Вуди Германа, с которым гастролировал в Англии и Саудовской Apaвии. Возглавлял Showboat Club в Вашингтоне, параллельно концертировал с академическим репертуаром. Совершил турне по Южной Америке (1961), вторично побывал в Европе, где выступал вместе с Лесом Маккэнном и «Зутом» Симсом (1963). Записал ряд пластинок как классический гитарист, а также как исполнитель джаза и боссановы — с собственным ансамблем, оркестром Вуди Германа, ансамблем Херба Эллиса, Стэна Гетца (JAZZ SAMBA, 1962) и другими.
Играл преимущественно на акустической концертной гитаре, привнес в джаз традиции испанской гитарной техники. Один из инициаторов и первых представителей направления, известного под названием босанова-джаз, или самба-джаз. Во время пребывания в Южной Америке начал эксперименты с латиноамериканскими ритмами в 1961, наиболее ранние записи сделал вместе с Гетцем. Экспериментировал также в области джазовой интерпретации ритмов испанского фламенко (фламенко-джаз). Принадлежал к числу музыкантов прогрессивного и кул-джаза.Валерий Озеров (по материалам Мегаэнциклопедии Кирилла и Мефодия)Видео на YouTube
 
Charlie Byrd - Byrd's World! (1958)
Label: Riverside
Трэклист:
01. Byrd's World [05:30]
02. Blue Turning Grey Over You [02:54]
03. Bobby In Bassoonville [04:28]
04. Satin Doll [04:43]
05. Tri-X [04:31]
06. Conversation Piece [03:35]
07. What's New [04:16]
08. Stompin' At The Savoy [03:24]
09. Don't Explain [03:29]
10. Buck's Hill [04:40]
Общая продолжительность: [41:28]
Доп. информация:
Charlie Byrd - guitar (unamplifed on #2, 6, and 9)
with
Bobby Felder, Buck Hill, T. Carson, Ketter Betts, Ginny Byrd, Bertell Knox, and others
 
LogFile
Exact Audio Copy V0.99 prebeta 4 from 23. January 2008
EAC extraction logfile from 3. May 2009, 18:54
Charlie Byrd / Byrd's World
Used drive : PLEXTOR DVDR PX-755A Adapter: 1 ID: 0
Read mode : Secure
Utilize accurate stream : Yes
Defeat audio cache : Yes
Make use of C2 pointers : No
Read offset correction : 30
Overread into Lead-In and Lead-Out : No
Fill up missing offset samples with silence : Yes
Delete leading and trailing silent blocks : No
Null samples used in CRC calculations : Yes
Used interface : Installed external ASPI interface
Used output format : User Defined Encoder
Selected bitrate : 768 kBit/s
Quality : High
Add ID3 tag : No
Command line compressor : C:\Program Files\Exact Audio Copy\FLAC\FLAC.EXE
Additional command line options : -7 -V -T "ARTIST=%a" -T "TITLE=%t" -T "ALBUM=%g" -T "DATE=%y" -T "TRACKNUMBER=%n" -T "GENRE=%m" -T "COMMENT=%e" %s -o %d
TOC of the extracted CD
Track | Start | Length | Start sector | End sector
---------------------------------------------------------
1 | 0:00.00 | 5:31.50 | 0 | 24874
2 | 5:31.50 | 2:55.42 | 24875 | 38041
3 | 8:27.17 | 4:27.58 | 38042 | 58124
4 | 12:55.00 | 4:42.72 | 58125 | 79346
5 | 17:37.72 | 4:32.03 | 79347 | 99749
6 | 22:10.00 | 3:33.62 | 99750 | 115786
7 | 25:43.62 | 4:15.45 | 115787 | 134956
8 | 29:59.32 | 3:24.53 | 134957 | 150309
9 | 33:24.10 | 3:29.25 | 150310 | 166009
10 | 36:53.35 | 4:36.47 | 166010 | 186756
Range status and errors
Selected range
Filename D:\riped music\Charlie Byrd - Byrd's World\Charlie Byrd - Byrd's World.wav
Peak level 100.0 %
Range quality 100.0 %
Copy CRC A7EF40F9
Copy OK
No errors occurred
AccurateRip summary
Track 1 cannot be verified as accurate (confidence 1) [79B4B00E], AccurateRip returned [E4BDCED6]
Track 2 cannot be verified as accurate (confidence 1) [7BC5C06B], AccurateRip returned [0662CB43]
Track 3 cannot be verified as accurate (confidence 1) [58464413], AccurateRip returned [DBE1FBAB]
Track 4 cannot be verified as accurate (confidence 1) [DF29E45F], AccurateRip returned [E24DCC45]
Track 5 cannot be verified as accurate (confidence 1) [0108133A], AccurateRip returned [BA9FA5D3]
Track 6 cannot be verified as accurate (confidence 1) [8D2D9F23], AccurateRip returned [DFFF02A1]
Track 7 cannot be verified as accurate (confidence 1) [CDC14368], AccurateRip returned [CD2E6FE3]
Track 8 cannot be verified as accurate (confidence 1) [C365EF51], AccurateRip returned [73694C29]
Track 9 cannot be verified as accurate (confidence 1) [D2E3986B], AccurateRip returned [C446A192]
Track 10 cannot be verified as accurate (confidence 1) [6FA17DAB], AccurateRip returned [A99ED5F4]
No tracks could be verified as accurate
You may have a different pressing from the one(s) in the database
End of status report
 
Charlie Byrd trio and Woodwinds - Byrd in the Wind (1959)
Label: Riverside
Трэклист:
01. Swing [03:19]
02. You'd be so nice to come home to [02:50]
03. Showboat shuffle [03:58]
04. Love letters [03:01]
05. Cross your heart [02:17]
06. Ketter's dirty Blues [04:11]
07. You're a seetheart [02:32]
08. Stars fell on Alabama [03:15]
09. You came a long way from St. Louis [03:31]
10. Wait till you see hear [02:54]
11. Georgia on my mind [03:07]
12. Copacabana [02:58]
Общая продолжительность: [37:40]
Доп. информация:
Charlie Byrd - unamplifed guitar
with
Ketter Betts, Ginny Byrd, Buck Hill, Bertell Knox, Charlie Schneer and others
 
LogFile
Exact Audio Copy V0.99 prebeta 4 from 23. January 2008
EAC extraction logfile from 3. May 2009, 21:19
Charlie Byrd Trio and Woodwinds / Byrd in the Wind
Used drive : PLEXTOR DVDR PX-755A Adapter: 1 ID: 0
Read mode : Secure
Utilize accurate stream : Yes
Defeat audio cache : Yes
Make use of C2 pointers : No
Read offset correction : 30
Overread into Lead-In and Lead-Out : No
Fill up missing offset samples with silence : Yes
Delete leading and trailing silent blocks : No
Null samples used in CRC calculations : Yes
Used interface : Installed external ASPI interface
Used output format : User Defined Encoder
Selected bitrate : 768 kBit/s
Quality : High
Add ID3 tag : No
Command line compressor : C:\Program Files\Exact Audio Copy\FLAC\FLAC.EXE
Additional command line options : -7 -V -T "ARTIST=%a" -T "TITLE=%t" -T "ALBUM=%g" -T "DATE=%y" -T "TRACKNUMBER=%n" -T "GENRE=%m" -T "COMMENT=%e" %s -o %d
TOC of the extracted CD
Track | Start | Length | Start sector | End sector
---------------------------------------------------------
1 | 0:00.00 | 3:22.35 | 0 | 15184
2 | 3:22.35 | 2:50.10 | 15185 | 27944
3 | 6:12.45 | 3:57.43 | 27945 | 45762
4 | 10:10.13 | 3:00.22 | 45763 | 59284
5 | 13:10.35 | 2:17.63 | 59285 | 69622
6 | 15:28.23 | 4:11.05 | 69623 | 88452
7 | 19:39.28 | 2:31.67 | 88453 | 99844
8 | 22:11.20 | 3:15.53 | 99845 | 114522
9 | 25:26.73 | 3:30.15 | 114523 | 130287
10 | 28:57.13 | 2:53.65 | 130288 | 143327
11 | 31:51.03 | 3:08.47 | 143328 | 157474
12 | 34:59.50 | 2:53.63 | 157475 | 170512
Range status and errors
Selected range
Filename D:\riped music\Charlie Byrd - Byrd in the wind\Charlie Byrd Trio and Woodwinds - Byrd in the Wind.wav
Peak level 100.0 %
Range quality 100.0 %
Copy CRC 333365D3
Copy OK
No errors occurred
AccurateRip summary
Track 1 not present in database
Track 2 not present in database
Track 3 not present in database
Track 4 not present in database
Track 5 not present in database
Track 6 not present in database
Track 7 not present in database
Track 8 not present in database
Track 9 not present in database
Track 10 not present in database
Track 11 not present in database
Track 12 not present in database
None of the tracks are present in the AccurateRip database
End of status report
 
Charlie Byrd - The Guitar Artistry of Charlie Byrd (1960)
Label: Riverside
Трэклист:
01. Taking A Chance On Love [01:55]
02. Moonlight In Vermont [02:54]
03. Speak Low [03:45]
04. Nuages [03:05]
05. Everthing I've Got [02:22]
06. Makin' Whoopie [02:46]
07. Django [03:26]
08. Nice Work If You Can Get It [01:48]
09. The House Of The Rising Sun [05:32]
10. Ring Them Harmonics [03:52]
11. Taboo [09:45]
12. To Ginny [05:29]
Общая продолжительность: [47:00]
Доп. информация:
Charlie Byrd - guitar
Ketter Betts - bass
Buddy Deppenschmidt - drums
 
LogFile
Exact Audio Copy V0.99 prebeta 4 from 23. January 2008
EAC extraction logfile from 3. May 2009, 16:26
Charlie Byrd / The Guitar Artistry Of Charlie Byrd
Used drive : PLEXTOR DVDR PX-755A Adapter: 1 ID: 0
Read mode : Secure
Utilize accurate stream : Yes
Defeat audio cache : Yes
Make use of C2 pointers : No
Read offset correction : 30
Overread into Lead-In and Lead-Out : No
Fill up missing offset samples with silence : Yes
Delete leading and trailing silent blocks : No
Null samples used in CRC calculations : Yes
Used interface : Installed external ASPI interface
Used output format : User Defined Encoder
Selected bitrate : 768 kBit/s
Quality : High
Add ID3 tag : No
Command line compressor : C:\Program Files\Exact Audio Copy\FLAC\FLAC.EXE
Additional command line options : -7 -V -T "ARTIST=%a" -T "TITLE=%t" -T "ALBUM=%g" -T "DATE=%y" -T "TRACKNUMBER=%n" -T "GENRE=%m" -T "COMMENT=%e" %s -o %d
TOC of the extracted CD
Track | Start | Length | Start sector | End sector
---------------------------------------------------------
1 | 0:00.00 | 1:57.67 | 0 | 8841
2 | 1:57.67 | 2:53.38 | 8842 | 21854
3 | 4:51.30 | 3:47.00 | 21855 | 38879
4 | 8:38.30 | 3:04.20 | 38880 | 52699
5 | 11:42.50 | 2:22.37 | 52700 | 63386
6 | 14:05.12 | 2:45.60 | 63387 | 75821
7 | 16:50.72 | 3:25.53 | 75822 | 91249
8 | 20:16.50 | 1:49.35 | 91250 | 99459
9 | 22:06.10 | 5:30.65 | 99460 | 124274
10 | 27:37.00 | 3:51.70 | 124275 | 141669
11 | 31:28.70 | 9:45.10 | 141670 | 185554
12 | 41:14.05 | 5:25.29 | 185555 | 209958
Range status and errors
Selected range
Filename D:\riped music\Charlie Byrd - The guitar artistry of Charlie Byrd\Charlie Byrd - The Guitar Artistry Of Charlie Byrd.wav
Peak level 100.0 %
Range quality 100.0 %
Copy CRC B550F0AD
Copy OK
No errors occurred
AccurateRip summary
Track 1 not present in database
Track 2 not present in database
Track 3 not present in database
Track 4 not present in database
Track 5 not present in database
Track 6 not present in database
Track 7 not present in database
Track 8 not present in database
Track 9 not present in database
Track 10 not present in database
Track 11 not present in database
Track 12 not present in database
None of the tracks are present in the AccurateRip database
End of status report
 
Charlie Byrd - Mr. Guitar (1961)
Label: Riverside
Трэклист:
01. Blues For Felix [02:56]
02. Gypsy In My Soul [02:58]
03. Im A Mellow Tone [03:15]
04. Prelude To A Kiss [04:47]
05. Travelin' On [02:35]
06. Play Fiddle, Play [03:39]
07. Funky Flamenco [02:51]
08. My One And Only [02:45]
09. Mama, I'll Be Home Some Day [03:17]
10. How Long Has This Been Going On [03:47]
11. Who Cares? [02:14]
12. Lay The Lilly Low [05:56]
Общая продолжительность: [41:00]
Доп. информация:
Charlie Byrd - guitar
Keter Betts - bass
Bertell Knox - drums
 
LogFile
Exact Audio Copy V0.99 prebeta 4 from 23. January 2008
EAC extraction logfile from 3. May 2009, 20:41
Charlie Byrd / Mr. Guitar
Used drive : PLEXTOR DVDR PX-755A Adapter: 1 ID: 0
Read mode : Secure
Utilize accurate stream : Yes
Defeat audio cache : Yes
Make use of C2 pointers : No
Read offset correction : 30
Overread into Lead-In and Lead-Out : No
Fill up missing offset samples with silence : Yes
Delete leading and trailing silent blocks : No
Null samples used in CRC calculations : Yes
Used interface : Installed external ASPI interface
Used output format : User Defined Encoder
Selected bitrate : 768 kBit/s
Quality : High
Add ID3 tag : No
Command line compressor : C:\Program Files\Exact Audio Copy\FLAC\FLAC.EXE
Additional command line options : -7 -V -T "ARTIST=%a" -T "TITLE=%t" -T "ALBUM=%g" -T "DATE=%y" -T "TRACKNUMBER=%n" -T "GENRE=%m" -T "COMMENT=%e" %s -o %d
TOC of the extracted CD
Track | Start | Length | Start sector | End sector
---------------------------------------------------------
1 | 0:00.00 | 3:00.72 | 0 | 13571
2 | 3:00.72 | 2:57.45 | 13572 | 26891
3 | 5:58.42 | 3:16.25 | 26892 | 41616
4 | 9:14.67 | 4:45.43 | 41617 | 63034
5 | 14:00.35 | 2:36.47 | 63035 | 74781
6 | 16:37.07 | 3:37.10 | 74782 | 91066
7 | 20:14.17 | 2:51.68 | 91067 | 103959
8 | 23:06.10 | 2:47.00 | 103960 | 116484
9 | 25:53.10 | 3:16.72 | 116485 | 131256
10 | 29:10.07 | 3:43.15 | 131257 | 147996
11 | 32:53.22 | 2:15.25 | 147997 | 158146
12 | 35:08.47 | 5:51.50 | 158147 | 184521
Range status and errors
Selected range
Filename D:\riped music\Charlie Byrd - Mr. Guitar\Charlie Byrd - Mr. Guitar.wav
Peak level 100.0 %
Range quality 99.9 %
Copy CRC 77EB6011
Copy OK
No errors occurred
AccurateRip summary
Track 1 cannot be verified as accurate (confidence 2) [29509A88], AccurateRip returned [D2043CFC]
Track 2 cannot be verified as accurate (confidence 2) [1A06148D], AccurateRip returned [B9C3BB00]
Track 3 cannot be verified as accurate (confidence 2) [2D0BFFBE], AccurateRip returned [9D74A8F0]
Track 4 cannot be verified as accurate (confidence 2) [A8C9AD88], AccurateRip returned [23779888]
Track 5 cannot be verified as accurate (confidence 2) [9DF514A3], AccurateRip returned [9CE8BB32]
Track 6 cannot be verified as accurate (confidence 2) [91159E17], AccurateRip returned [8D0193C3]
Track 7 cannot be verified as accurate (confidence 2) [1B631837], AccurateRip returned [13FD6B26]
Track 8 cannot be verified as accurate (confidence 2) [218C6C95], AccurateRip returned [0A0B2CCD]
Track 9 cannot be verified as accurate (confidence 2) [DDCF436D], AccurateRip returned [60D384D8]
Track 10 cannot be verified as accurate (confidence 2) [62FC1C2C], AccurateRip returned [7B020797]
Track 11 cannot be verified as accurate (confidence 2) [3AF33D24], AccurateRip returned [2C818BB2]
Track 12 cannot be verified as accurate (confidence 2) [0127F41F], AccurateRip returned [172809B6]
No tracks could be verified as accurate
You may have a different pressing from the one(s) in the database
End of status report
 
Charlie Byrd – Blues Sonata (1961)
Label: Riverside
Трэклист:
01. Polonaise Pour Pietro [06:58]
02. Ballad In B Minor [05:02]
03. Scherzo For An Old Shoe [09:08]
04. Alexander's Ragtime Band [05:27]
05. Jordu [04:38]
06. That Old Devil Called Love [04:52]
07. Zing ! Went The Strings Of My Heart [04:33]
Общая продолжительность: [40:37]
Доп. информация:
Charlie Byrd - guitar (unamplifed on #1-3)
Barry Harris - piano (#4-7)
Ketter Betts - bass
Buddy Deppenschmidt - drums
 
LogFile
Exact Audio Copy V0.99 prebeta 4 from 23. January 2008
EAC extraction logfile from 3. May 2009, 19:20
Charlie Byrd / Blues Sonata
Used drive : PLEXTOR DVDR PX-755A Adapter: 1 ID: 0
Read mode : Secure
Utilize accurate stream : Yes
Defeat audio cache : Yes
Make use of C2 pointers : No
Read offset correction : 30
Overread into Lead-In and Lead-Out : No
Fill up missing offset samples with silence : Yes
Delete leading and trailing silent blocks : No
Null samples used in CRC calculations : Yes
Used interface : Installed external ASPI interface
Used output format : User Defined Encoder
Selected bitrate : 768 kBit/s
Quality : High
Add ID3 tag : No
Command line compressor : C:\Program Files\Exact Audio Copy\FLAC\FLAC.EXE
Additional command line options : -7 -V -T "ARTIST=%a" -T "TITLE=%t" -T "ALBUM=%g" -T "DATE=%y" -T "TRACKNUMBER=%n" -T "GENRE=%m" -T "COMMENT=%e" %s -o %d
TOC of the extracted CD
Track | Start | Length | Start sector | End sector
---------------------------------------------------------
1 | 0:00.00 | 7:01.17 | 0 | 31591
2 | 7:01.17 | 5:01.13 | 31592 | 54179
3 | 12:02.30 | 9:08.70 | 54180 | 95349
4 | 21:11.25 | 5:26.20 | 95350 | 119819
5 | 26:37.45 | 4:37.70 | 119820 | 140664
6 | 31:15.40 | 4:52.07 | 140665 | 162571
7 | 36:07.47 | 4:30.43 | 162572 | 182864
Range status and errors
Selected range
Filename D:\riped music\Charlie Byrd - Blues Sonata\Charlie Byrd - Blues Sonata.wav
Peak level 100.0 %
Range quality 100.0 %
Copy CRC 565D0786
Copy OK
No errors occurred
AccurateRip summary
Track 1 not present in database
Track 2 not present in database
Track 3 not present in database
Track 4 not present in database
Track 5 not present in database
Track 6 not present in database
Track 7 not present in database
None of the tracks are present in the AccurateRip database
End of status report
 
Charlie Byrd – At the Village Vanguard (1962)
Label: Riverside
Трэклист:
01. Just Squeeze Me [13:00]
02. Why Was I Born? [05:58]
03. You Stepped Out of A Dream [06:48]
04. Fantasia on Which Side Are You On? [20:33]
Общая продолжительность: [46:18]
Доп. информация:
Charlie Byrd - guitar
Keter Betts - bass
Buddy Deppenshmidt - drums
 
LogFile
Exact Audio Copy V0.99 prebeta 4 from 23. January 2008
EAC extraction logfile from 3. May 2009, 20:31
Charlie Byrd / Charlie Byrd at The Village Vanguard
Used drive : PLEXTOR DVDR PX-755A Adapter: 1 ID: 0
Read mode : Secure
Utilize accurate stream : Yes
Defeat audio cache : Yes
Make use of C2 pointers : No
Read offset correction : 30
Overread into Lead-In and Lead-Out : No
Fill up missing offset samples with silence : Yes
Delete leading and trailing silent blocks : No
Null samples used in CRC calculations : Yes
Used interface : Installed external ASPI interface
Used output format : User Defined Encoder
Selected bitrate : 768 kBit/s
Quality : High
Add ID3 tag : No
Command line compressor : C:\Program Files\Exact Audio Copy\FLAC\FLAC.EXE
Additional command line options : -7 -V -T "ARTIST=%a" -T "TITLE=%t" -T "ALBUM=%g" -T "DATE=%y" -T "TRACKNUMBER=%n" -T "GENRE=%m" -T "COMMENT=%e" %s -o %d
TOC of the extracted CD
Track | Start | Length | Start sector | End sector
---------------------------------------------------------
1 | 0:00.00 | 13:00.70 | 0 | 58569
2 | 13:00.70 | 5:57.15 | 58570 | 85359
3 | 18:58.10 | 6:48.60 | 85360 | 116019
4 | 25:46.70 | 20:32.20 | 116020 | 208439
Range status and errors
Selected range
Filename D:\riped music\Charlie Byrd - At the village vanguard\Charlie Byrd - Charlie Byrd at The Village Vanguard.wav
Peak level 100.0 %
Range quality 100.0 %
Copy CRC 03AEBAF5
Copy OK
No errors occurred
AccurateRip summary
Track 1 cannot be verified as accurate (confidence 2) [F4A3A953], AccurateRip returned [9823A73B]
Track 2 cannot be verified as accurate (confidence 2) [DD30BFD8], AccurateRip returned [60670E90]
Track 3 cannot be verified as accurate (confidence 2) [0E81D0EA], AccurateRip returned [18778EE6]
Track 4 cannot be verified as accurate (confidence 2) [F5DD0F50], AccurateRip returned [BD67CE10]
No tracks could be verified as accurate
You may have a different pressing from the one(s) in the database
End of status report
 
Charlie Byrd – Bossa Nova Pelos Passaros (1962-1963)
Label: Riverside
Трэклист:
01. Yvone [01:56]
02. Um Abraco Do Bonfa (A Salute To Bonfa) [02:22]
03. Meditacao (Meditation) [03:13]
04. Voce E Eu (You and I) [02:56]
05. Coisa Mais Linda (A Most Beautiful Thing) [02:41]
06. O Barquinho (Little Boat) [01:57]
07. Desafinado (Slightly Out of Tune) [02:33]
08. Samba Triste [02:03]
09. Bim Bom [01:51]
10. Ho-Ba-La-La [02:16]
11. Ela Me Deixou (She Has Gone) [02:36]
12. O Passaro (The Bird) [03:11]
13. Outra Vez (Once More) [03:17]
14. Presente De Natal (Birthday Present) [03:29]
15. Insensatez (How Insensitive) [03:00]
16. Three Note Samba [02:24]
17. Samba De Minha Terra (Samba of My Country) [02:04]
18. Limehouse Blues [03:02]
Общая продолжительность: [45:37]
Доп. информация:
Charlie Byrd - guitar
Keter Betts - bass
Bill Reichenbach - drums & latin percusion
with
Gene Byrd, Buddy Deppenschmidt, Tommy Gwaltney
 
LogFile
Exact Audio Copy V0.99 prebeta 4 from 23. January 2008
EAC extraction logfile from 2. May 2009, 1:45
Charlie Byrd / Bossa Nova Pelos Passaros
Used drive : PLEXTOR DVDR PX-755A Adapter: 1 ID: 0
Read mode : Secure
Utilize accurate stream : Yes
Defeat audio cache : Yes
Make use of C2 pointers : No
Read offset correction : 30
Overread into Lead-In and Lead-Out : No
Fill up missing offset samples with silence : Yes
Delete leading and trailing silent blocks : No
Null samples used in CRC calculations : Yes
Used interface : Installed external ASPI interface
Used output format : User Defined Encoder
Selected bitrate : 768 kBit/s
Quality : High
Add ID3 tag : No
Command line compressor : C:\Program Files\Exact Audio Copy\FLAC\FLAC.EXE
Additional command line options : -8 -V -T "ARTIST=%a" -T "TITLE=%t" -T "ALBUM=%g" -T "DATE=%y" -T "TRACKNUMBER=%n" -T "GENRE=%m" -T "COMMENT=%e" %s -o %d
TOC of the extracted CD
Track | Start | Length | Start sector | End sector
---------------------------------------------------------
1 | 0:00.00 | 1:58.38 | 0 | 8887
2 | 1:58.38 | 2:22.33 | 8888 | 19570
3 | 4:20.71 | 3:12.25 | 19571 | 33995
4 | 7:33.21 | 2:56.12 | 33996 | 47207
5 | 10:29.33 | 2:41.40 | 47208 | 59322
6 | 13:10.73 | 1:56.40 | 59323 | 68062
7 | 15:07.38 | 2:32.53 | 68063 | 79515
8 | 17:40.16 | 2:03.00 | 79516 | 88740
9 | 19:43.16 | 1:51.57 | 88741 | 97122
10 | 21:34.73 | 2:16.00 | 97123 | 107322
11 | 23:50.73 | 2:35.70 | 107323 | 119017
12 | 26:26.68 | 3:10.30 | 119018 | 133297
13 | 29:37.23 | 3:16.73 | 133298 | 148070
14 | 32:54.21 | 3:29.22 | 148071 | 163767
15 | 36:23.43 | 2:59.48 | 163768 | 177240
16 | 39:23.16 | 2:24.25 | 177241 | 188065
17 | 41:47.41 | 2:04.27 | 188066 | 197392
18 | 43:51.68 | 2:59.53 | 197393 | 210870
Range status and errors
Selected range
Filename D:\riped music\Charlie Byrd - Bossa Nova Pelos Passaros.wav
Peak level 100.0 %
Range quality 100.0 %
Test CRC 71E781C7
Copy CRC 71E781C7
Copy OK
No errors occurred
End of status report
 
Charlie Byrd - Latin Byrd (Latin Impressions + Once More! Charlie Byrd's Bossa Nova) (1962-1963)
Label: Milestone
Трэклист:
01. The Duck [05:34]
02. Amor Flamengo [02:05]
03. Azul Tiple [03:37]
04. Cancion Di Argentina [02:07]
05. Manha De Carnaval [02:36]
06. Homage A Villa-Lobos [03:16]
07. Bogota [03:54]
08. Mexican Song No 2 [02:51]
09. Mexican Song No 1 [01:00]
10. Samba De Uma Nota So [02:57]
11. Galopera [02:13]
12. Vals [05:36]
13. Outra Vez [03:17]
14. Presente De Natal [03:29]
15. Insensatez [02:59]
16. Three Note Samba [02:24]
17. Samba Da Minha Terra [02:03]
18. Limehouse Blues [03:02]
19. Saudade Da Bahia [02:28]
20. Anna [04:41]
21. Socegadamente [02:44]
22. Chega De Saudade [03:17]
23. Cancao De Nina Para Carol [04:25]
Общая продолжительность: [72:35]
##1-12originally released as CD Latin Impressions
##13-23 as CD Once More! Charlie Byrd's Bossa Nova
Доп. информация:
Charlie Byrd - unamplified guitar
Gene Byrd - guitar or bass
Keter Betts - bass
Bill Reichenbach, Buddy Deppenschmidt - drums, latin percussion
 
LogFile
Exact Audio Copy V0.99 prebeta 4 from 23. January 2008
EAC extraction logfile from 3. May 2009, 16:12
Charlie Byrd / Latin Byrd
Used drive : PLEXTOR DVDR PX-755A Adapter: 1 ID: 0
Read mode : Secure
Utilize accurate stream : Yes
Defeat audio cache : Yes
Make use of C2 pointers : No
Read offset correction : 30
Overread into Lead-In and Lead-Out : No
Fill up missing offset samples with silence : Yes
Delete leading and trailing silent blocks : No
Null samples used in CRC calculations : Yes
Used interface : Installed external ASPI interface
Used output format : User Defined Encoder
Selected bitrate : 768 kBit/s
Quality : High
Add ID3 tag : No
Command line compressor : C:\Program Files\Exact Audio Copy\FLAC\FLAC.EXE
Additional command line options : -7 -V -T "ARTIST=%a" -T "TITLE=%t" -T "ALBUM=%g" -T "DATE=%y" -T "TRACKNUMBER=%n" -T "GENRE=%m" -T "COMMENT=%e" %s -o %d
TOC of the extracted CD
Track | Start | Length | Start sector | End sector
---------------------------------------------------------
1 | 0:00.00 | 5:37.72 | 0 | 25346
2 | 5:37.72 | 2:05.08 | 25347 | 34729
3 | 7:43.05 | 3:36.70 | 34730 | 50999
4 | 11:20.00 | 2:06.05 | 51000 | 60454
5 | 13:26.05 | 2:35.70 | 60455 | 72149
6 | 16:02.00 | 3:17.65 | 72150 | 86989
7 | 19:19.65 | 3:53.62 | 86990 | 104526
8 | 23:13.52 | 2:50.10 | 104527 | 117286
9 | 26:03.62 | 0:58.70 | 117287 | 121706
10 | 27:02.57 | 2:57.53 | 121707 | 135034
11 | 30:00.35 | 2:13.22 | 135035 | 145031
12 | 32:13.57 | 5:36.30 | 145032 | 170261
13 | 37:50.12 | 3:16.08 | 170262 | 184969
14 | 41:06.20 | 3:29.30 | 184970 | 200674
15 | 44:35.50 | 2:58.40 | 200675 | 214064
16 | 47:34.15 | 2:23.67 | 214065 | 224856
17 | 49:58.07 | 2:03.18 | 224857 | 234099
18 | 52:01.25 | 3:02.62 | 234100 | 247811
19 | 55:04.12 | 2:27.40 | 247812 | 258876
20 | 57:31.52 | 4:42.00 | 258877 | 280026
21 | 62:13.52 | 2:42.60 | 280027 | 292236
22 | 64:56.37 | 3:16.33 | 292237 | 306969
23 | 68:12.70 | 4:22.50 | 306970 | 326669
Range status and errors
Selected range
Filename D:\riped music\Charlie Byrd - Latin Byrd\Charlie Byrd - Latin Byrd.wav
Peak level 100.0 %
Range quality 100.0 %
Copy CRC 4429B578
Copy OK
No errors occurred
End of status report
 
Charlie Byrd– Byrd at the Gate (1963)
Label: Riverside
Трэклист:
01. Shiny Stockings [04:57]
02. More (Theme from ''Mondo Cane'') [02:55]
03. Blues For Night People [07:07]
04. Butter And Egg Man [03:40]
05. Ela Me Deixou [03:34]
06. Broadway [04:45]
07. I Left My Heart In San Francisco [02:59]
08. Some Other Spring [04:18]
09. Where Are The Hebrew Children? [08:21]
10. Let's Do It [04:28]
11. Jive At Five [07:12]
Общая продолжительность: [54:00]
Доп. информация:
Charlie Byrd - guitar
Keter Betts - bass
Bill Reichenbach - drums
Charlie Terry - trumpet (on #4, 6, 8 and 11)
Seldon Powell - tenor saxophone (on #2, 5, and 6)
 
LogFile
Exact Audio Copy V0.99 prebeta 4 from 23. January 2008
EAC extraction logfile from 3. May 2009, 20:21
Charlie Byrd / At The Village Gate
Used drive : PLEXTOR DVDR PX-755A Adapter: 1 ID: 0
Read mode : Secure
Utilize accurate stream : Yes
Defeat audio cache : Yes
Make use of C2 pointers : No
Read offset correction : 30
Overread into Lead-In and Lead-Out : No
Fill up missing offset samples with silence : Yes
Delete leading and trailing silent blocks : No
Null samples used in CRC calculations : Yes
Used interface : Installed external ASPI interface
Used output format : User Defined Encoder
Selected bitrate : 768 kBit/s
Quality : High
Add ID3 tag : No
Command line compressor : C:\Program Files\Exact Audio Copy\FLAC\FLAC.EXE
Additional command line options : -7 -V -T "ARTIST=%a" -T "TITLE=%t" -T "ALBUM=%g" -T "DATE=%y" -T "TRACKNUMBER=%n" -T "GENRE=%m" -T "COMMENT=%e" %s -o %d
TOC of the extracted CD
Track | Start | Length | Start sector | End sector
---------------------------------------------------------
1 | 0:00.00 | 4:57.67 | 0 | 22341
2 | 4:57.67 | 2:54.30 | 22342 | 35421
3 | 7:52.22 | 7:07.15 | 35422 | 67461
4 | 14:59.37 | 3:40.10 | 67462 | 83971
5 | 18:39.47 | 3:36.18 | 83972 | 100189
6 | 22:15.65 | 4:42.30 | 100190 | 121369
7 | 26:58.20 | 2:59.30 | 121370 | 134824
8 | 29:57.50 | 4:18.07 | 134825 | 154181
9 | 34:15.57 | 8:22.25 | 154182 | 191856
10 | 42:38.07 | 4:27.08 | 191857 | 211889
11 | 47:05.15 | 7:11.50 | 211890 | 244264
Range status and errors
Selected range
Filename D:\riped music\Charlie Byrd - Byrd at the Gate\Charlie Byrd - At The Village Gate.wav
Peak level 79.5 %
Range quality 100.0 %
Copy CRC A2D02A4F
Copy OK
No errors occurred
AccurateRip summary
Track 1 not present in database
Track 2 not present in database
Track 3 not present in database
Track 4 not present in database
Track 5 not present in database
Track 6 not present in database
Track 7 not present in database
Track 8 not present in database
Track 9 not present in database
Track 10 not present in database
Track 11 not present in database
None of the tracks are present in the AccurateRip database
End of status report
 
Charlie Byrd with Voices – Byrd song (1965)
Label: Riverside
Трэклист:
01. I Left My Heart In San Francisco [03:32]
02. Who Will Buy? [03:16]
03. The Night We Called It A Day [02:24]
04. Wildcat [02:30]
05. Felicidade [02:42]
06. Action Painting [03:07]
07. This Can't Be Love [02:38]
08. Let's Do It [03:26]
09. God Bless The Child [02:48]
10. My Favorite Things [04:15]
11. Swing 59 [03:22]
12. Born To Be Blue [02:16]
Общая продолжительность: [36:17]
Доп. информация:
Charlie Byrd - guitar
Keter Betts - bass
Bill Reichenbach - drums
and voices/
 
LogFile
Exact Audio Copy V0.99 prebeta 4 from 23. January 2008
EAC extraction logfile from 3. May 2009, 16:44
Charlie Byrd / Charlie Byrd With Voices
Used drive : PLEXTOR DVDR PX-755A Adapter: 1 ID: 0
Read mode : Secure
Utilize accurate stream : Yes
Defeat audio cache : Yes
Make use of C2 pointers : No
Read offset correction : 30
Overread into Lead-In and Lead-Out : No
Fill up missing offset samples with silence : Yes
Delete leading and trailing silent blocks : No
Null samples used in CRC calculations : Yes
Used interface : Installed external ASPI interface
Used output format : User Defined Encoder
Selected bitrate : 768 kBit/s
Quality : High
Add ID3 tag : No
Command line compressor : C:\Program Files\Exact Audio Copy\FLAC\FLAC.EXE
Additional command line options : -7 -V -T "ARTIST=%a" -T "TITLE=%t" -T "ALBUM=%g" -T "DATE=%y" -T "TRACKNUMBER=%n" -T "GENRE=%m" -T "COMMENT=%e" %s -o %d
TOC of the extracted CD
Track | Start | Length | Start sector | End sector
---------------------------------------------------------
1 | 0:00.00 | 3:32.13 | 0 | 15912
2 | 3:32.13 | 3:16.37 | 15913 | 30649
3 | 6:48.50 | 2:23.43 | 30650 | 41417
4 | 9:12.18 | 2:30.10 | 41418 | 52677
5 | 11:42.28 | 2:42.27 | 52678 | 64854
6 | 14:24.55 | 3:06.28 | 64855 | 78832
7 | 17:31.08 | 2:38.07 | 78833 | 90689
8 | 20:09.15 | 3:26.15 | 90690 | 106154
9 | 23:35.30 | 2:47.68 | 106155 | 118747
10 | 26:23.23 | 4:15.40 | 118748 | 137912
11 | 30:38.63 | 3:21.30 | 137913 | 153017
12 | 34:00.18 | 2:16.47 | 153018 | 163264
Range status and errors
Selected range
Filename D:\riped music\Charlie Byrd - With Voices\Charlie Byrd - Charlie Byrd With Voices.wav
Peak level 100.0 %
Range quality 100.0 %
Copy CRC C505B373
Copy OK
No errors occurred
AccurateRip summary
Track 1 cannot be verified as accurate (confidence 1) [0B0CC897], AccurateRip returned [3D020A99]
Track 2 cannot be verified as accurate (confidence 1) [022C86A4], AccurateRip returned [39CB21A0]
Track 3 cannot be verified as accurate (confidence 1) [F8BF8572], AccurateRip returned [17C14C56]
Track 4 cannot be verified as accurate (confidence 1) [8534AE69], AccurateRip returned [5AC8B619]
Track 5 cannot be verified as accurate (confidence 1) [26FA24C9], AccurateRip returned [AA268315]
Track 6 cannot be verified as accurate (confidence 1) [917CD270], AccurateRip returned [E98B4334]
Track 7 cannot be verified as accurate (confidence 1) [F4AF5078], AccurateRip returned [32B75418]
Track 8 cannot be verified as accurate (confidence 1) [C2DAA515], AccurateRip returned [1542C506]
Track 9 cannot be verified as accurate (confidence 1) [A403461F], AccurateRip returned [2D477573]
Track 10 cannot be verified as accurate (confidence 1) [1219F32B], AccurateRip returned [FC35C37A]
Track 11 cannot be verified as accurate (confidence 1) [574CDB73], AccurateRip returned [15846144]
Track 12 cannot be verified as accurate (confidence 1) [02F944C5], AccurateRip returned [34DBD29D]
No tracks could be verified as accurate
You may have a different pressing from the one(s) in the database
End of status report
 
Charlie Byrd and Laurindo Almeida- Brazilian Soul (1981)
Label: Concord Picante
Трэклист:
01. Carioca [03:48]
02. Naquele Tempo [03:42]
03. Cochichando [02:41]
04. Luperce [02:53]
05. Famoso [02:59]
06. Choro II [02:55]
07. Brazilian Soul [02:48]
08. Stone Flower [05:00]
09. For Jeff [06:51]
10. Don't Cry For Me Argentina [03:38]
Общая продолжительность: [37:15]
Доп. информация:
Laurindo Almeida - guitar
Charlie Byrd - guitar
Mit Holland - percussion
Bob Magnusson - bass
 
LogFile
Exact Audio Copy V0.99 prebeta 4 from 23. January 2008
EAC extraction logfile from 3. May 2009, 20:53
Charlie Byrd and Laurindo Almeida / Brazilian Soul
Used drive : PLEXTOR DVDR PX-755A Adapter: 1 ID: 0
Read mode : Secure
Utilize accurate stream : Yes
Defeat audio cache : Yes
Make use of C2 pointers : No
Read offset correction : 30
Overread into Lead-In and Lead-Out : No
Fill up missing offset samples with silence : Yes
Delete leading and trailing silent blocks : No
Null samples used in CRC calculations : Yes
Used interface : Installed external ASPI interface
Used output format : User Defined Encoder
Selected bitrate : 768 kBit/s
Quality : High
Add ID3 tag : No
Command line compressor : C:\Program Files\Exact Audio Copy\FLAC\FLAC.EXE
Additional command line options : -7 -V -T "ARTIST=%a" -T "TITLE=%t" -T "ALBUM=%g" -T "DATE=%y" -T "TRACKNUMBER=%n" -T "GENRE=%m" -T "COMMENT=%e" %s -o %d
TOC of the extracted CD
Track | Start | Length | Start sector | End sector
---------------------------------------------------------
1 | 0:00.37 | 3:49.70 | 37 | 17281
2 | 3:50.32 | 3:42.28 | 17282 | 33959
3 | 7:32.60 | 2:41.60 | 33960 | 46094
4 | 10:14.45 | 2:52.17 | 46095 | 59011
5 | 13:06.62 | 2:59.10 | 59012 | 72446
6 | 16:05.72 | 2:55.03 | 72447 | 85574
7 | 19:01.00 | 2:48.50 | 85575 | 98224
8 | 21:49.50 | 5:00.47 | 98225 | 120771
9 | 26:50.22 | 6:50.25 | 120772 | 151546
10 | 33:40.47 | 3:34.48 | 151547 | 167644
Range status and errors
Selected range
Filename D:\riped music\Charlie Byrd and Laurindo Almeida - Brazilian soul\Charlie Byrd and Laurindo Almeida - Brazilian Soul.wav
Peak level 95.4 %
Range quality 99.9 %
Copy CRC 6649449B
Copy OK
No errors occurred
AccurateRip summary
Track 1 accurately ripped (confidence 2) [8FFD70A9]
Track 2 accurately ripped (confidence 2) [806B0620]
Track 3 accurately ripped (confidence 2) [257BE7E6]
Track 4 accurately ripped (confidence 2) [CA3401F1]
Track 5 accurately ripped (confidence 2) [082B7780]
Track 6 accurately ripped (confidence 2) [08E7D4D4]
Track 7 accurately ripped (confidence 2) [F8DA8B72]
Track 8 accurately ripped (confidence 2) [87C3C77C]
Track 9 accurately ripped (confidence 2) [2F5F4F7E]
Track 10 accurately ripped (confidence 2) [381AE755]
All tracks accurately ripped
End of status report
 
Charlie Byrd & Laurindo Almeida- Latin Odyssey (1983)
Label: Concord Picante
Трэклист:
01. Memory [04:07]
02. Zum And Resureccion Del Angel [07:47]
03. El Nino [03:14]
04. Gitenerias [02:39]
05. Adios [03:05]
06. El Gavilan [03:03]
07. Estrellita (Little Star) [04:25]
08. Turbilhao De Beijos [04:12]
09. Intermezzo Malinconico [03:08]
Общая продолжительность: [35:40]
Доп. информация:
Laurindo Almeida - guitar
Charlie Byrd - guitar
Joe Byrd - bass
Bob Magnusson - bass
Jeff Hamilton - drums
Chuck Redd - drums
 
LogFile
Exact Audio Copy V0.99 prebeta 4 from 23. January 2008
EAC extraction logfile from 3. May 2009, 21:03
Laurind Almeida / Charlie Byrd / Latin Oddysey
Used drive : PLEXTOR DVDR PX-755A Adapter: 1 ID: 0
Read mode : Secure
Utilize accurate stream : Yes
Defeat audio cache : Yes
Make use of C2 pointers : No
Read offset correction : 30
Overread into Lead-In and Lead-Out : No
Fill up missing offset samples with silence : Yes
Delete leading and trailing silent blocks : No
Null samples used in CRC calculations : Yes
Used interface : Installed external ASPI interface
Used output format : User Defined Encoder
Selected bitrate : 768 kBit/s
Quality : High
Add ID3 tag : No
Command line compressor : C:\Program Files\Exact Audio Copy\FLAC\FLAC.EXE
Additional command line options : -7 -V -T "ARTIST=%a" -T "TITLE=%t" -T "ALBUM=%g" -T "DATE=%y" -T "TRACKNUMBER=%n" -T "GENRE=%m" -T "COMMENT=%e" %s -o %d
TOC of the extracted CD
Track | Start | Length | Start sector | End sector
---------------------------------------------------------
1 | 0:00.00 | 4:12.00 | 0 | 18899
2 | 4:12.00 | 7:46.00 | 18900 | 53849
3 | 11:58.00 | 3:13.38 | 53850 | 68362
4 | 15:11.38 | 2:40.02 | 68363 | 80364
5 | 17:51.40 | 3:04.20 | 80365 | 94184
6 | 20:55.60 | 3:03.15 | 94185 | 107924
7 | 23:59.00 | 4:25.00 | 107925 | 127799
8 | 28:24.00 | 4:12.00 | 127800 | 146699
9 | 32:36.00 | 3:04.55 | 146700 | 160554
Range status and errors
Selected range
Filename D:\riped music\Charlie Byrd and Laurindo Almeida - Latin Oddysey\Laurind Almeida - Charlie Byrd Latin Oddysey.wav
Peak level 89.3 %
Range quality 100.0 %
Copy CRC A17ACFCA
Copy OK
No errors occurred
AccurateRip summary
Track 1 not present in database
Track 2 not present in database
Track 3 not present in database
Track 4 not present in database
Track 5 not present in database
Track 6 not present in database
Track 7 not present in database
Track 8 not present in database
Track 9 not present in database
None of the tracks are present in the AccurateRip database
End of status report
 
Charlie Byrd – Isn’t it romantic? (1984)
Label: Concord Picante
Трэклист:
01. Isn't It Romantic? [03:30]
02. I Could Write A Book [03:06]
03. Cheek To Cheek [04:33]
04. The Very Thought Of You [03:27]
05. Thou Swell [02:53]
06. I Guess I'll Have To Change My Plan [04:09]
07. He Loves And She Loves [04:05]
08. Last Night When We Were Young [03:49]
09. One Morning In May [03:07]
10. I Didn't Know What Time It Was [03:54]
11. There's A Small Hotel [03:06]
12. Someone To Watch Over Me [03:52]
13. I Thought About You [03:42]
Общая продолжительность: [47:13]
Доп. информация:
Charlie Byrd - guitar
Joe Byrd - bass
Chuck Redd - drums
 
LogFile
Exact Audio Copy V0.99 prebeta 4 from 23. January 2008
EAC extraction logfile from 3. May 2009, 17:21
Charlie Byrd Trio / Isn't It Romantic?
Used drive : PLEXTOR DVDR PX-755A Adapter: 1 ID: 0
Read mode : Secure
Utilize accurate stream : Yes
Defeat audio cache : Yes
Make use of C2 pointers : No
Read offset correction : 30
Overread into Lead-In and Lead-Out : No
Fill up missing offset samples with silence : Yes
Delete leading and trailing silent blocks : No
Null samples used in CRC calculations : Yes
Used interface : Installed external ASPI interface
Used output format : User Defined Encoder
Selected bitrate : 768 kBit/s
Quality : High
Add ID3 tag : No
Command line compressor : C:\Program Files\Exact Audio Copy\FLAC\FLAC.EXE
Additional command line options : -7 -V -T "ARTIST=%a" -T "TITLE=%t" -T "ALBUM=%g" -T "DATE=%y" -T "TRACKNUMBER=%n" -T "GENRE=%m" -T "COMMENT=%e" %s -o %d
TOC of the extracted CD
Track | Start | Length | Start sector | End sector
---------------------------------------------------------
1 | 0:00.00 | 3:34.47 | 0 | 16096
2 | 3:34.47 | 3:05.38 | 16097 | 30009
3 | 6:40.10 | 4:33.37 | 30010 | 50521
4 | 11:13.47 | 3:26.33 | 50522 | 66004
5 | 14:40.05 | 2:52.45 | 66005 | 78949
6 | 17:32.50 | 4:09.60 | 78950 | 97684
7 | 21:42.35 | 4:04.37 | 97685 | 116021
8 | 25:46.72 | 3:48.63 | 116022 | 133184
9 | 29:35.60 | 3:07.12 | 133185 | 147221
10 | 32:42.72 | 3:54.08 | 147222 | 164779
11 | 36:37.05 | 3:06.42 | 164780 | 178771
12 | 39:43.47 | 3:52.28 | 178772 | 196199
13 | 43:36.00 | 3:37.65 | 196200 | 212539
Range status and errors
Selected range
Filename D:\riped music\Charlie Byrd - Isn't it romantic\Charlie Byrd Trio - Isn't It Romantic.wav
Peak level 99.5 %
Range quality 100.0 %
Copy CRC 91EEE5C5
Copy OK
No errors occurred
AccurateRip summary
Track 1 cannot be verified as accurate (confidence 1) [1A36E69D], AccurateRip returned [EB38305A]
Track 2 cannot be verified as accurate (confidence 1) [A882DB51], AccurateRip returned [D10BB850]
Track 3 cannot be verified as accurate (confidence 1) [C9E7C5C3], AccurateRip returned [468EC0DD]
Track 4 cannot be verified as accurate (confidence 1) [C9574261], AccurateRip returned [809EB88C]
Track 5 cannot be verified as accurate (confidence 1) [26BC234A], AccurateRip returned [392F93B4]
Track 6 cannot be verified as accurate (confidence 1) [35CFE848], AccurateRip returned [46F32980]
Track 7 cannot be verified as accurate (confidence 1) [F075B018], AccurateRip returned [CE8451E7]
Track 8 cannot be verified as accurate (confidence 1) [92A66AE8], AccurateRip returned [484BFF08]
Track 9 cannot be verified as accurate (confidence 1) [AECE7BE2], AccurateRip returned [EF7F1C38]
Track 10 cannot be verified as accurate (confidence 1) [BCE0BC7D], AccurateRip returned [33FA10BA]
Track 11 cannot be verified as accurate (confidence 1) [46D5F9D7], AccurateRip returned [AC04FCA2]
Track 12 cannot be verified as accurate (confidence 1) [1D342BDF], AccurateRip returned [F11DCEC5]
Track 13 cannot be verified as accurate (confidence 1) [3227838A], AccurateRip returned [D576A4C9]
No tracks could be verified as accurate
You may have a different pressing from the one(s) in the database
End of status report
 
Charlie Byrd and Laurindo Almeida - Tango (1985)
Label: Concord Picante
Трэклист:
01. Orchids In The Moonlight [03:07]
02. Blue Tango [04:28]
03. Jalousie [03:24]
04. Los Enamorados [03:02]
05. La Rosita [02:32]
06. Tango Alegre [03:06]
07. La Cumparsita [03:04]
08. Adios Muchachos [04:04]
09. The Moon Was Yellow [03:47]
10. Hernando's Hideaway [03:54]
11. Tanguero [03:57]
Общая продолжительность: [38:25]
Доп. информация:
Charlie Byrd - guitar
Laurindo Almeida - guitar
 
LogFile
Exact Audio Copy V0.99 prebeta 4 from 23. January 2008
EAC extraction logfile from 3. May 2009, 17:04
Laurindo Almeida / Charlie Byrd / Tango
Used drive : PLEXTOR DVDR PX-755A Adapter: 1 ID: 0
Read mode : Secure
Utilize accurate stream : Yes
Defeat audio cache : Yes
Make use of C2 pointers : No
Read offset correction : 30
Overread into Lead-In and Lead-Out : No
Fill up missing offset samples with silence : Yes
Delete leading and trailing silent blocks : No
Null samples used in CRC calculations : Yes
Used interface : Installed external ASPI interface
Used output format : User Defined Encoder
Selected bitrate : 768 kBit/s
Quality : High
Add ID3 tag : No
Command line compressor : C:\Program Files\Exact Audio Copy\FLAC\FLAC.EXE
Additional command line options : -7 -V -T "ARTIST=%a" -T "TITLE=%t" -T "ALBUM=%g" -T "DATE=%y" -T "TRACKNUMBER=%n" -T "GENRE=%m" -T "COMMENT=%e" %s -o %d
TOC of the extracted CD
Track | Start | Length | Start sector | End sector
---------------------------------------------------------
1 | 0:00.00 | 3:11.15 | 0 | 14339
2 | 3:11.15 | 4:27.47 | 14340 | 34411
3 | 7:38.62 | 3:24.35 | 34412 | 49746
4 | 11:03.22 | 3:02.35 | 49747 | 63431
5 | 14:05.57 | 2:31.18 | 63432 | 74774
6 | 16:37.00 | 3:05.20 | 74775 | 88669
7 | 19:42.20 | 3:04.72 | 88670 | 102541
8 | 22:47.17 | 4:04.23 | 102542 | 120864
9 | 26:51.40 | 3:47.20 | 120865 | 137909
10 | 30:38.60 | 3:53.50 | 137910 | 155434
11 | 34:32.35 | 3:52.50 | 155435 | 172884
Range status and errors
Selected range
Filename D:\riped music\Charlie Byrd - Tango\Laurindo Almeida - Charlie Byrd Tango.wav
Peak level 78.0 %
Range quality 100.0 %
Copy CRC E8049771
Copy OK
No errors occurred
AccurateRip summary
Track 1 cannot be verified as accurate (confidence 1) [DAEFC6E1], AccurateRip returned [12FC1125]
Track 2 cannot be verified as accurate (confidence 1) [A41322D4], AccurateRip returned [4BF36E14]
Track 3 cannot be verified as accurate (confidence 1) [8AF79899], AccurateRip returned [A48F4ED1]
Track 4 cannot be verified as accurate (confidence 1) [BF0F0A1F], AccurateRip returned [F3A78472]
Track 5 cannot be verified as accurate (confidence 1) [40330CEB], AccurateRip returned [94AABFC5]
Track 6 cannot be verified as accurate (confidence 1) [0E111BEE], AccurateRip returned [912ED74F]
Track 7 cannot be verified as accurate (confidence 1) [914E9616], AccurateRip returned [65D99758]
Track 8 cannot be verified as accurate (confidence 1) [06EBDF14], AccurateRip returned [F22B6F06]
Track 9 cannot be verified as accurate (confidence 1) [126CA215], AccurateRip returned [0289D8A4]
Track 10 cannot be verified as accurate (confidence 1) [6B376EB8], AccurateRip returned [CE8D4C98]
Track 11 cannot be verified as accurate (confidence 1) [1660864B], AccurateRip returned [13BC0458]
No tracks could be verified as accurate
You may have a different pressing from the one(s) in the database
End of status report
Ко всем дискам прилагаются высококачественные сканы


Другие диски Charlie Byrd на rutracker.org:
Charlie Byrd - Bamba-Samba Bossa Nova (1958)
Stan Getz & Charlie Byrd - Jazz Samba (1962)
Charlie Byrd - Brazilian Byrd (1964)
Charlie Byrd - Solo Flight (1965)
Charlie Byrd - Byrd & Brazil (Sugarloaf Suite (1979) & Brazilville(1981))
Charlie Byrd & Washington Guitar Quintet (1992)
Charlie Byrd - Moments Like This (1994)
Charlie Byrd - Jazz'n'Samba (1995)
The Charlie Byrd Trio Au Courant (1997)
Charlie Byrd - Byrd Plays Jobim
Charlie Byrd - For Louis(2000)
Приятного прослушивания!Убедительная просьба не сваливать сразу с раздачи!
Any questions -> support@pro-jazz.com. По всем вопросам пишите -> support@pro-jazz.com
07:07
500
Нет комментариев. Ваш будет первым!