Поиск

(Jazz/Funk) Greyboy - Freestylin' - 1993, FLAC (tracks+.cue), lossless

(Jazz/Funk) Greyboy - Freestylin' - 1993, FLAC (tracks+.cue), lossless
Треклист:
Greyboy - Freestylin'
Жанр: Jazz/Funk
Год выпуска диска: 1993
Производитель диска: US
Аудио кодек: FLAC
Тип рипа: tracks+.cue
Битрейт аудио: lossless
Продолжительность: 00:51:19
Трэклист:
01. Ruffneck Jazz (4:48)
02. Panacea (6:23)
03. Singles Party (4:16)
04. La Jolla (4:08)
05. On the Strip (5:43)
06. Freestylin' (6:14)
07. Lite Bake (6:11)
08. Texas Twister (5:22)
09. Who's Gonna Be the Junkie? (6:03)
10. Outerlude (2:11)
 
Logs
 
Exact Audio Copy
Exact Audio Copy V0.99 prebeta 5 from 4. May 2009
EAC extraction logfile from 6. August 2009, 5:08
Greyboy / Freestylin'
Used drive : TSSTcorpCDDVDW TS-L633A Adapter: 0 ID: 1
Read mode : Secure
Utilize accurate stream : Yes
Defeat audio cache : Yes
Make use of C2 pointers : No
Read offset correction : 6
Overread into Lead-In and Lead-Out : No
Fill up missing offset samples with silence : Yes
Delete leading and trailing silent blocks : No
Null samples used in CRC calculations : Yes
Used interface : Native Win32 interface for Win NT & 2000
Gap handling : Appended to previous track
Used output format : User Defined Encoder
Selected bitrate : 128 kBit/s
Quality : High
Add ID3 tag : No
Command line compressor : D:\Program Files\Exact Audio Copy\Flac\flac.exe
Additional command line options : -V -8 -T "artist=%a" -T "title=%t" -T "album=%g" -T "date=%y" -T "tracknumber=%n" -T "genre=%m" %s
TOC of the extracted CD
Track | Start | Length | Start sector | End sector
---------------------------------------------------------
1 | 0:00.00 | 4:47.03 | 0 | 21527
2 | 4:47.03 | 6:22.30 | 21528 | 50207
3 | 11:09.33 | 4:16.25 | 50208 | 69432
4 | 15:25.58 | 4:07.32 | 69433 | 87989
5 | 19:33.15 | 5:42.25 | 87990 | 113664
6 | 25:15.40 | 6:13.60 | 113665 | 141699
7 | 31:29.25 | 6:11.10 | 141700 | 169534
8 | 37:40.35 | 5:21.35 | 169535 | 193644
9 | 43:01.70 | 6:03.30 | 193645 | 220899
10 | 49:05.25 | 2:10.30 | 220900 | 230679
Track 1
Filename D:\EAC Rips\Greyboy - 1993 - Freestylin'\01 - Ruffneck Jazz.wav
Pre-gap length 0:00:02.00
Peak level 100.0 %
Track quality 100.0 %
Test CRC BEB6F02C
Copy CRC BEB6F02C
Cannot be verified as accurate (confidence 1) [57AD88DE], AccurateRip returned [B504B83B]
Copy OK
Track 2
Filename D:\EAC Rips\Greyboy - 1993 - Freestylin'\02 - Panacea.wav
Pre-gap length 0:00:02.65
Peak level 99.9 %
Track quality 100.0 %
Test CRC E98C5A6C
Copy CRC E98C5A6C
Cannot be verified as accurate (confidence 1) [005A933A], AccurateRip returned [885679AE]
Copy OK
Track 3
Filename D:\EAC Rips\Greyboy - 1993 - Freestylin'\03 - Singles Party.wav
Pre-gap length 0:00:03.60
Peak level 99.7 %
Track quality 99.9 %
Test CRC 2A1E2DE8
Copy CRC 2A1E2DE8
Cannot be verified as accurate (confidence 1) [D21CA6EC], AccurateRip returned [9AA16893]
Copy OK
Track 4
Filename D:\EAC Rips\Greyboy - 1993 - Freestylin'\04 - La Jolla.wav
Pre-gap length 0:00:04.65
Peak level 84.2 %
Track quality 100.0 %
Test CRC F8013665
Copy CRC F8013665
Cannot be verified as accurate (confidence 1) [362976C9], AccurateRip returned [6D12CF3A]
Copy OK
Track 5
Filename D:\EAC Rips\Greyboy - 1993 - Freestylin'\05 - On The Strip.wav
Pre-gap length 0:00:03.45
Peak level 96.9 %
Track quality 99.9 %
Test CRC 89F4C83B
Copy CRC 89F4C83B
Cannot be verified as accurate (confidence 1) [8C0A8F54], AccurateRip returned [84F9BECC]
Copy OK
Track 6
Filename D:\EAC Rips\Greyboy - 1993 - Freestylin'\06 - Freestylin'.wav
Pre-gap length 0:00:02.65
Peak level 91.8 %
Track quality 100.0 %
Test CRC 43098778
Copy CRC 43098778
Cannot be verified as accurate (confidence 1) [AC53BF5D], AccurateRip returned [CCD5FA4A]
Copy OK
Track 7
Filename D:\EAC Rips\Greyboy - 1993 - Freestylin'\07 - Lite Bake.wav
Pre-gap length 0:00:03.20
Peak level 100.0 %
Track quality 100.0 %
Test CRC ACEED3C4
Copy CRC ACEED3C4
Cannot be verified as accurate (confidence 1) [5A63A69E], AccurateRip returned [A1B8F0B7]
Copy OK
Track 8
Filename D:\EAC Rips\Greyboy - 1993 - Freestylin'\08 - Texas Twister.wav
Pre-gap length 0:00:02.20
Peak level 100.0 %
Track quality 100.0 %
Test CRC 30FF1153
Copy CRC 30FF1153
Cannot be verified as accurate (confidence 1) [8BDB58BF], AccurateRip returned [46B60C6C]
Copy OK
Track 9
Filename D:\EAC Rips\Greyboy - 1993 - Freestylin'\09 - Who's Gonna Be The Junkie .wav
Pre-gap length 0:00:03.40
Peak level 99.9 %
Track quality 100.0 %
Test CRC 4D37C71C
Copy CRC 4D37C71C
Cannot be verified as accurate (confidence 1) [A51CBFAE], AccurateRip returned [DF1B5CDC]
Copy OK
Track 10
Filename D:\EAC Rips\Greyboy - 1993 - Freestylin'\10 - Outerlude.wav
Pre-gap length 0:00:02.60
Peak level 91.2 %
Track quality 100.0 %
Test CRC 8B0A2BD9
Copy CRC 8B0A2BD9
Cannot be verified as accurate (confidence 1) [735B306A], AccurateRip returned [A685EDD6]
Copy OK
No tracks could be verified as accurate
You may have a different pressing from the one(s) in the database
No errors occurred
End of status report
 
audiochecker
AUDIOCHECKER v2.0 beta (build 457) - by Dester - opdester@freemail.hu
~~~~~~~~~~~~~~~~~~~~~~~~~~~~~~~~~~
-=== DO NOT EDIT THIS FILE! ===-
Path: ...\Greyboy - 1993 - Freestylin' [FLAC]
01 -=- 01 - Ruffneck Jazz.flac -=- CDDA (100%)
02 -=- 02 - Panacea.flac -=- CDDA (100%)
03 -=- 03 - Singles Party.flac -=- CDDA (100%)
04 -=- 04 - La Jolla.flac -=- CDDA (100%)
05 -=- 05 - On The Strip.flac -=- CDDA (76%)
06 -=- 06 - Freestylin'.flac -=- CDDA (99%)
07 -=- 07 - Lite Bake.flac -=- CDDA (100%)
08 -=- 08 - Texas Twister.flac -=- CDDA (100%)
09 -=- 09 - Who's Gonna Be The Junkie .flac -=- CDDA (100%)
10 -=- 10 - Outerlude.flac -=- CDDA (100%)
Summary 97,50% CDDA
148124644
 
Album info
San Diego resident and hip-hop head Andreas Stevens caught the rare groove bug in the early 1990s. His search for rare vinyl eventually led him to the Groove Merchant: the San Francisco record store run by Jodi and Michael McFadin. When the husband and wife team decided to expand operations, establishing the Ubiquity label, Stevens, aka DJ Greyboy, was one of the first artists to offer his services. Freestylin', his 1994 debut, would be a Ubiquity best seller for years to come and did much to establish the initial outlook of the label. The bulk of the material finds its source in the funk/jazz/hip-hop melting pot that is acid jazz/rare groove. Though Greyboy does lay down some fine templates — tightly constructed bass and breakbeat grooves from his impressive record crates — it's his co-conspirator, tenor saxophonist Karl Denson, who steals the show. Denson combines with Harold Todd's flute to deliver the melodic blueprint of tracks like "Ruffneck Jazz" and "On the Strip." It's the saxman's soloing, however, that really impresses. The album title track, with its crowd samples, brings the live flavor, and Denson responds with an impassioned improvisation, blazing a trail for Todd to follow in. The Denson-penned "Who's Gonna Be the Junkie?" is a standout. Todd straps on his sax to join the author for this tenor showcase, which has the two soloing over an excellent, lopping funk groove navigated by Derek G.'s bass of lead. Guitarist Marc Antoine also receives prominent billing, lending impressive six-string displays to "Lite Bake" and a reading of Melvin Sparks' "Texas Twister." It's Greyboy, however, who gets the last word in, signing off with the drifting vibes of "Outerlude" and concluding a promising debut.
 
Источник
What.cd Uploaded by Flipm0de
Приватный:
Нет (DHT включён)
Размер:
282.84 Мб (296,582,189 байт) » файлов: 16
Участники:
0 раздают, 0 качают (0 участников всего)
Внешние участники:
2 раздают, 1 качают (3 участников всего) [ Обновить ]
Нет сидеров - пишите личное сообщение M0p94ok. Не нравятся торренты? Участники группы Pro-jazz Club могут заказать прямую ссылку на скачивание из облака.
No seeders - write a personal message to M0p94ok. Don't like torrents? Members of Pro-jazz Club group can order a direct download link from the cloud.
02:01
70
Нет комментариев. Ваш будет первым!