Поиск

(Contemporary Jazz / Standards) Ben Sidran - Dylan Different - 2009, FLAC (tracks+.cue), lossless

(Contemporary Jazz / Standards) Ben Sidran - Dylan Different - 2009, FLAC (tracks+.cue), lossless
Треклист:
Ben Sidran - Dylan Different
Жанр: Contemporary Jazz / Standards
Год выпуска : 2009
Лейбл: Nardis Music
Аудио кодек: FLAC
Тип рипа: tracks+.cue
Битрейт аудио: lossless
Продолжительность: 00:46:08
Рип: drvolks - What CD


01. Everything Is Broken (3:26)
02. Highway 61 Revisited (3:18)
03. Tangled Up In Blue (3:47)
04. Gotta Serve Somebody (4:47)
05. Rainy Day Woman #12 & 35 (3:47)
06. Ballad Of A Thin Man (2:57)
07. Maggie's Farm (4:58)
08. Knockin' On Heaven's Door (3:51)
09. Subterranean Homesick Blues (3:39)
10. On The Road Again (3:09)
11. All I Really Want To Do (3:21)
12. Blowin' In The Wind (5:09)

 
XLD
X Lossless Decoder version 20091111 (113.0)
XLD extraction logfile from 2009-12-24 08:32:50 -0500
Ben Sidran / Dylan Different
Used drive : MATSHITA CD-RW CW-8221 (revision GA0J)
Use cdparanoia mode : YES (CDParanoia III 10.2 engine)
Disable audio cache : OK for the drive with cache less than 2750KB
Make use of C2 pointers : NO
Read offset correction : 102
Max retry count : 100
TOC of the extracted CD
Track | Start | Length | Start sector | End sector
---------------------------------------------------------
1 | 00:00:00 | 03:25:43 | 0 | 15417
2 | 03:25:43 | 03:18:13 | 15418 | 30280
3 | 06:43:56 | 03:46:49 | 30281 | 47279
4 | 10:30:30 | 04:47:10 | 47280 | 68814
5 | 15:17:40 | 03:46:48 | 68815 | 85812
6 | 19:04:13 | 02:56:67 | 85813 | 99079
7 | 22:01:05 | 04:58:31 | 99080 | 121460
8 | 26:59:36 | 03:50:72 | 121461 | 138782
9 | 30:50:33 | 03:39:20 | 138783 | 155227
10 | 34:29:53 | 03:08:71 | 155228 | 169398
11 | 37:38:49 | 03:20:40 | 169399 | 184438
12 | 40:59:14 | 05:08:64 | 184439 | 207602
Track 01
Filename : /Users/Shared/XLD/Ben Sidran - Dylan Different/01 - Everything Is Broken.m4a
/Users/Shared/XLD/Ben Sidran - Dylan Different/01 - Everything Is Broken.flac
/Users/Shared/XLD/Ben Sidran - Dylan Different/01 - Everything Is Broken.mp3
CRC32 hash (test run) : 7E62C297
CRC32 hash : 7E62C297
CRC32 hash (skip zero) : 94884DC3
AccurateRip signature : EFFEBB6B
->Track not present in AccurateRip database.
Statistics
Read error : 0
Skipped (treated as error) : 0
Edge jitter error (maybe fixed) : 0
Atom jitter error (maybe fixed) : 0
Drift error (maybe fixed) : 0
Dropped bytes error (maybe fixed) : 0
Duplicated bytes error (maybe fixed) : 0
Inconsistency in error sectors : 0
Track 02
Filename : /Users/Shared/XLD/Ben Sidran - Dylan Different/02 - Highway 61 Revisited.m4a
/Users/Shared/XLD/Ben Sidran - Dylan Different/02 - Highway 61 Revisited.flac
/Users/Shared/XLD/Ben Sidran - Dylan Different/02 - Highway 61 Revisited.mp3
CRC32 hash (test run) : 243887D8
CRC32 hash : 243887D8
CRC32 hash (skip zero) : 292F407C
AccurateRip signature : 14F30CD5
->Track not present in AccurateRip database.
Statistics
Read error : 0
Skipped (treated as error) : 0
Edge jitter error (maybe fixed) : 0
Atom jitter error (maybe fixed) : 0
Drift error (maybe fixed) : 0
Dropped bytes error (maybe fixed) : 0
Duplicated bytes error (maybe fixed) : 0
Inconsistency in error sectors : 0
Track 03
Filename : /Users/Shared/XLD/Ben Sidran - Dylan Different/03 - Tangled Up In Blue.m4a
/Users/Shared/XLD/Ben Sidran - Dylan Different/03 - Tangled Up In Blue.flac
/Users/Shared/XLD/Ben Sidran - Dylan Different/03 - Tangled Up In Blue.mp3
CRC32 hash (test run) : 29F2CD77
CRC32 hash : 29F2CD77
CRC32 hash (skip zero) : BD9635A4
AccurateRip signature : 8680785D
->Track not present in AccurateRip database.
Statistics
Read error : 0
Skipped (treated as error) : 0
Edge jitter error (maybe fixed) : 0
Atom jitter error (maybe fixed) : 0
Drift error (maybe fixed) : 0
Dropped bytes error (maybe fixed) : 0
Duplicated bytes error (maybe fixed) : 0
Inconsistency in error sectors : 0
Track 04
Filename : /Users/Shared/XLD/Ben Sidran - Dylan Different/04 - Gotta Serve Somebody.m4a
/Users/Shared/XLD/Ben Sidran - Dylan Different/04 - Gotta Serve Somebody.flac
/Users/Shared/XLD/Ben Sidran - Dylan Different/04 - Gotta Serve Somebody.mp3
CRC32 hash (test run) : 6F68F287
CRC32 hash : 6F68F287
CRC32 hash (skip zero) : FC5D19FD
AccurateRip signature : 3467A106
->Track not present in AccurateRip database.
Statistics
Read error : 0
Skipped (treated as error) : 0
Edge jitter error (maybe fixed) : 0
Atom jitter error (maybe fixed) : 0
Drift error (maybe fixed) : 0
Dropped bytes error (maybe fixed) : 0
Duplicated bytes error (maybe fixed) : 0
Inconsistency in error sectors : 0
Track 05
Filename : /Users/Shared/XLD/Ben Sidran - Dylan Different/05 - Rainy Day Woman #12 & 35.m4a
/Users/Shared/XLD/Ben Sidran - Dylan Different/05 - Rainy Day Woman #12 & 35.flac
/Users/Shared/XLD/Ben Sidran - Dylan Different/05 - Rainy Day Woman #12 & 35.mp3
CRC32 hash (test run) : 5CDCE746
CRC32 hash : 5CDCE746
CRC32 hash (skip zero) : 62A84ABB
AccurateRip signature : F699E542
->Track not present in AccurateRip database.
Statistics
Read error : 0
Skipped (treated as error) : 0
Edge jitter error (maybe fixed) : 0
Atom jitter error (maybe fixed) : 0
Drift error (maybe fixed) : 0
Dropped bytes error (maybe fixed) : 0
Duplicated bytes error (maybe fixed) : 0
Inconsistency in error sectors : 0
Track 06
Filename : /Users/Shared/XLD/Ben Sidran - Dylan Different/06 - Ballad Of A Thin Man.m4a
/Users/Shared/XLD/Ben Sidran - Dylan Different/06 - Ballad Of A Thin Man.flac
/Users/Shared/XLD/Ben Sidran - Dylan Different/06 - Ballad Of A Thin Man.mp3
CRC32 hash (test run) : 26BA13AA
CRC32 hash : 26BA13AA
CRC32 hash (skip zero) : 642A9CCE
AccurateRip signature : 0614CC19
->Track not present in AccurateRip database.
Statistics
Read error : 0
Skipped (treated as error) : 0
Edge jitter error (maybe fixed) : 0
Atom jitter error (maybe fixed) : 0
Drift error (maybe fixed) : 0
Dropped bytes error (maybe fixed) : 0
Duplicated bytes error (maybe fixed) : 0
Inconsistency in error sectors : 0
Track 07
Filename : /Users/Shared/XLD/Ben Sidran - Dylan Different/07 - Maggie's Farm.m4a
/Users/Shared/XLD/Ben Sidran - Dylan Different/07 - Maggie's Farm.flac
/Users/Shared/XLD/Ben Sidran - Dylan Different/07 - Maggie's Farm.mp3
CRC32 hash (test run) : 199395AD
CRC32 hash : 199395AD
CRC32 hash (skip zero) : 8EC863D9
AccurateRip signature : 02F62215
->Track not present in AccurateRip database.
Statistics
Read error : 0
Skipped (treated as error) : 0
Edge jitter error (maybe fixed) : 0
Atom jitter error (maybe fixed) : 0
Drift error (maybe fixed) : 0
Dropped bytes error (maybe fixed) : 0
Duplicated bytes error (maybe fixed) : 0
Inconsistency in error sectors : 0
Track 08
Filename : /Users/Shared/XLD/Ben Sidran - Dylan Different/08 - Knockin' On Heaven's Door.m4a
/Users/Shared/XLD/Ben Sidran - Dylan Different/08 - Knockin' On Heaven's Door.flac
/Users/Shared/XLD/Ben Sidran - Dylan Different/08 - Knockin' On Heaven's Door.mp3
CRC32 hash (test run) : 99675599
CRC32 hash : 99675599
CRC32 hash (skip zero) : C52E89BC
AccurateRip signature : C775F47B
->Track not present in AccurateRip database.
Statistics
Read error : 0
Skipped (treated as error) : 0
Edge jitter error (maybe fixed) : 0
Atom jitter error (maybe fixed) : 0
Drift error (maybe fixed) : 0
Dropped bytes error (maybe fixed) : 0
Duplicated bytes error (maybe fixed) : 0
Inconsistency in error sectors : 0
Track 09
Filename : /Users/Shared/XLD/Ben Sidran - Dylan Different/09 - Subterranean Homesick Blues.m4a
/Users/Shared/XLD/Ben Sidran - Dylan Different/09 - Subterranean Homesick Blues.flac
/Users/Shared/XLD/Ben Sidran - Dylan Different/09 - Subterranean Homesick Blues.mp3
CRC32 hash (test run) : 93BA3D10
CRC32 hash : 93BA3D10
CRC32 hash (skip zero) : A072C136
AccurateRip signature : 57764FE2
->Track not present in AccurateRip database.
Statistics
Read error : 0
Skipped (treated as error) : 0
Edge jitter error (maybe fixed) : 0
Atom jitter error (maybe fixed) : 0
Drift error (maybe fixed) : 0
Dropped bytes error (maybe fixed) : 0
Duplicated bytes error (maybe fixed) : 0
Inconsistency in error sectors : 0
Track 10
Filename : /Users/Shared/XLD/Ben Sidran - Dylan Different/10 - On The Road Again.m4a
/Users/Shared/XLD/Ben Sidran - Dylan Different/10 - On The Road Again.flac
/Users/Shared/XLD/Ben Sidran - Dylan Different/10 - On The Road Again.mp3
CRC32 hash (test run) : C921DF78
CRC32 hash : C921DF78
CRC32 hash (skip zero) : 567A7041
AccurateRip signature : 56914684
->Track not present in AccurateRip database.
Statistics
Read error : 0
Skipped (treated as error) : 0
Edge jitter error (maybe fixed) : 0
Atom jitter error (maybe fixed) : 0
Drift error (maybe fixed) : 0
Dropped bytes error (maybe fixed) : 0
Duplicated bytes error (maybe fixed) : 0
Inconsistency in error sectors : 0
Track 11
Filename : /Users/Shared/XLD/Ben Sidran - Dylan Different/11 - All I Really Want To Do.m4a
/Users/Shared/XLD/Ben Sidran - Dylan Different/11 - All I Really Want To Do.flac
/Users/Shared/XLD/Ben Sidran - Dylan Different/11 - All I Really Want To Do.mp3
CRC32 hash (test run) : CFC28D68
CRC32 hash : CFC28D68
CRC32 hash (skip zero) : 3B4C987F
AccurateRip signature : 956F20DC
->Track not present in AccurateRip database.
Statistics
Read error : 0
Skipped (treated as error) : 0
Edge jitter error (maybe fixed) : 0
Atom jitter error (maybe fixed) : 0
Drift error (maybe fixed) : 0
Dropped bytes error (maybe fixed) : 0
Duplicated bytes error (maybe fixed) : 0
Inconsistency in error sectors : 0
Track 12
Filename : /Users/Shared/XLD/Ben Sidran - Dylan Different/12 - Blowin' In The Wind.m4a
/Users/Shared/XLD/Ben Sidran - Dylan Different/12 - Blowin' In The Wind.flac
/Users/Shared/XLD/Ben Sidran - Dylan Different/12 - Blowin' In The Wind.mp3
CRC32 hash (test run) : FCCDF364
CRC32 hash : FCCDF364
CRC32 hash (skip zero) : 128E25FA
AccurateRip signature : B6F69B98
->Track not present in AccurateRip database.
Statistics
Read error : 0
Skipped (treated as error) : 0
Edge jitter error (maybe fixed) : 0
Atom jitter error (maybe fixed) : 0
Drift error (maybe fixed) : 0
Dropped bytes error (maybe fixed) : 0
Duplicated bytes error (maybe fixed) : 0
Inconsistency in error sectors : 0
No errors occurred
End of status report
 
CUE
PERFORMER "Ben Sidran"
TITLE "Dylan Different"
REM GENRE "Jazz"
REM DATE 2009
FILE "01 - Everything Is Broken.wav" WAVE
TRACK 01 AUDIO
TITLE "Everything Is Broken"
ISRC FR12Q0900363
INDEX 01 00:00:00
FILE "02 - Highway 61 Revisited.wav" WAVE
TRACK 02 AUDIO
TITLE "Highway 61 Revisited"
ISRC FR12Q0900364
INDEX 01 00:00:00
FILE "03 - Tangled Up In Blue.wav" WAVE
TRACK 03 AUDIO
TITLE "Tangled Up In Blue"
ISRC FR12Q0900365
INDEX 01 00:00:00
FILE "04 - Gotta Serve Somebody.wav" WAVE
TRACK 04 AUDIO
TITLE "Gotta Serve Somebody"
ISRC FR12Q0900366
INDEX 01 00:00:00
FILE "05 - Rainy Day Woman #12 & 35.wav" WAVE
TRACK 05 AUDIO
TITLE "Rainy Day Woman #12 & 35"
ISRC FR12Q0900367
INDEX 01 00:00:00
TRACK 06 AUDIO
TITLE "Ballad Of A Thin Man"
ISRC FR12Q0900368
INDEX 00 03:46:18
FILE "06 - Ballad Of A Thin Man.wav" WAVE
INDEX 01 00:00:00
TRACK 07 AUDIO
TITLE "Maggie's Farm"
ISRC FR12Q0900369
INDEX 00 02:55:50
FILE "07 - Maggie's Farm.wav" WAVE
INDEX 01 00:00:00
TRACK 08 AUDIO
TITLE "Knockin' On Heaven's Door"
ISRC FR12Q0900370
INDEX 00 04:57:40
FILE "08 - Knockin' On Heaven's Door.wav" WAVE
INDEX 01 00:00:00
TRACK 09 AUDIO
TITLE "Subterranean Homesick Blues"
ISRC FR12Q0900371
INDEX 00 03:50:32
FILE "09 - Subterranean Homesick Blues.wav" WAVE
INDEX 01 00:00:00
FILE "10 - On The Road Again.wav" WAVE
TRACK 10 AUDIO
TITLE "On The Road Again"
ISRC FR12Q0900372
INDEX 01 00:00:00
TRACK 11 AUDIO
TITLE "All I Really Want To Do"
ISRC FR12Q0900373
INDEX 00 03:08:06
FILE "11 - All I Really Want To Do.wav" WAVE
INDEX 01 00:00:00
TRACK 12 AUDIO
TITLE "Blowin' In The Wind"
ISRC FR12Q0900374
INDEX 00 03:19:24
FILE "12 - Blowin' In The Wind.wav" WAVE
INDEX 01 00:00:00
 
Audiochecker
Started at: суббота, 26. 12. 2009. - 11:35.43
12 files found
01 -===- C:\Downloads\Music\Джаз\Ben Sidran - Dylan Different - 2009\01 - Everything Is Broken.flac
Extracted successfully
Conclusion: This track looks like CDDA with probability 100%
Tempfile successfully deleted.
02 -===- C:\Downloads\Music\Джаз\Ben Sidran - Dylan Different - 2009\02 - Highway 61 Revisited.flac
Extracted successfully
Conclusion: This track looks like CDDA with probability 100%
Tempfile successfully deleted.
03 -===- C:\Downloads\Music\Джаз\Ben Sidran - Dylan Different - 2009\03 - Tangled Up In Blue.flac
Extracted successfully
Conclusion: This track looks like CDDA with probability 100%
Tempfile successfully deleted.
04 -===- C:\Downloads\Music\Джаз\Ben Sidran - Dylan Different - 2009\04 - Gotta Serve Somebody.flac
Extracted successfully
Conclusion: This track looks like CDDA with probability 100%
Tempfile successfully deleted.
05 -===- C:\Downloads\Music\Джаз\Ben Sidran - Dylan Different - 2009\05 - Rainy Day Woman #12 & 35.flac
Extracted successfully
Conclusion: This track looks like CDDA with probability 100%
Tempfile successfully deleted.
06 -===- C:\Downloads\Music\Джаз\Ben Sidran - Dylan Different - 2009\06 - Ballad Of A Thin Man.flac
Extracted successfully
Conclusion: This track looks like CDDA with probability 100%
Tempfile successfully deleted.
07 -===- C:\Downloads\Music\Джаз\Ben Sidran - Dylan Different - 2009\07 - Maggie's Farm.flac
Extracted successfully
Conclusion: This track looks like CDDA with probability 100%
Tempfile successfully deleted.
08 -===- C:\Downloads\Music\Джаз\Ben Sidran - Dylan Different - 2009\08 - Knockin' On Heaven's Door.flac
Extracted successfully
Conclusion: This track looks like CDDA with probability 100%
Tempfile successfully deleted.
09 -===- C:\Downloads\Music\Джаз\Ben Sidran - Dylan Different - 2009\09 - Subterranean Homesick Blues.flac
Extracted successfully
Conclusion: This track looks like CDDA with probability 100%
Tempfile successfully deleted.
10 -===- C:\Downloads\Music\Джаз\Ben Sidran - Dylan Different - 2009\10 - On The Road Again.flac
Extracted successfully
Conclusion: This track looks like CDDA with probability 100%
Tempfile successfully deleted.
11 -===- C:\Downloads\Music\Джаз\Ben Sidran - Dylan Different - 2009\11 - All I Really Want To Do.flac
Extracted successfully
Conclusion: This track looks like CDDA with probability 100%
Tempfile successfully deleted.
12 -===- C:\Downloads\Music\Джаз\Ben Sidran - Dylan Different - 2009\12 - Blowin' In The Wind.flac
Extracted successfully
Conclusion: This track looks like CDDA with probability 99%
Tempfile successfully deleted.
Finished at: суббота, 26. 12. 2009. - 11:43.34 (operation time: 0:07.50)

Ben Sidran — Vocals, Piano, Wulitizer, Hammond B3, Fender Rhodes
Alberto Malo — Drums and Percussion
Marcello Giuliani — Acoustic and Electric Bass
Rodolph Burger — Guitar, Vocal on "Blowin' in the Wind"
Bob Malach — Tenor Saxophone, Flute, Bass Clarinet
Michael Leonhart — Trumpet, Flugelhorn
Amy Helm — Background Vocals
Georgie Fame — Vocal and Organ on "Rainy Day Woman #12 & 35"
Jorge Drexler — Vocal on "Knockin' on Heaven's Door"
Leonor Watling & Luca — Backgroiund Vocals on "Knockin' on Heaven's Door"
Leo Sidran — Horn Arrangements, Additional Guitar, Hammond B3, Piano, Koto
Приватный:
Нет (DHT включён)
Размер:
263.31 Мб (276,105,632 байт) » файлов: 16
Участники:
0 раздают, 0 качают (0 участников всего)
Внешние участники:
--- [ Обновить ]
Нет сидеров - пишите личное сообщение M0p94ok. Не нравятся торренты? Участники группы Pro-jazz Club могут заказать прямую ссылку на скачивание из облака.
No seeders - write a personal message to M0p94ok. Don't like torrents? Members of Pro-jazz Club group can order a direct download link from the cloud.
02:01
18
Нет комментариев. Ваш будет первым!