Поиск

(Jazz/Easy Listenning/Afro Cuban Jazz/70's) Dogliotti - Condombe (Vampi Soul cd) - 2007, APE (image+.cue), lossless

(Jazz/Easy Listenning/Afro Cuban Jazz/70's) Dogliotti - Condombe (Vampi Soul cd) - 2007, APE (image+.cue), lossless
Треклист:
Dogliotti - Condombe (Vampi Soul cd)
Жанр: Jazz/Easy Listenning/Afro-Cuban Jazz/70's
Год выпуска диска: 2007
Производитель диска: Spain / Vampi Soul rec
Аудио кодек: APE
Тип рипа: image+.cue
Битрейт аудио: lossless
Продолжительность: 77:33
Трэклист:
01. Don Pascual
02. Buma Buruma
03. Candela
04. Nunca, Nunca
05. Dona Gregoria
06. Chicalanga
07. Las Manzanas
08. Baile de los Morenos
09. Tierra
10. Siga el Baile
11. El Cable
12. Tingo Tingo
13. Prohibido Tomar Cafe en el Estudio
14. Ahi Va la Comparsa
15. Siempre Tu
16. Negro en Sol Menor
17. Cheche
18. Abuelo Regalame un Tamboril
19. Candombe
20. Chiquillada
21. Biafra
22. Palo y Tamboril
23. Candombe de Mi Ciudad
24. La Llamada
25. Biricunyamba
26. Yacumenza
27. El Candomble
The complete recordings of Urugayan outstanding organ player Mike Dogliotti, between 1970 and 1972
 
Отчёт EAC
Exact Audio Copy V0.99 prebeta 4 from 23. January 2008
Отчёт EAC об извлечении, выполненном 7. мая 2009, 11:20
Unknown Artist / Unknown Title
Дисковод: TEAC DV-W516GA Adapter: 0 ID: 0
Режим чтения : Достоверность
Использование точного потока : Да
Отключение кэша аудио : Да
Использование указателей C2 : Нет
Коррекция смещения при чтении : 12
Способность читать области Lead-in и Lead-out : Нет
Заполнение пропущенных сэмплов тишиной : Да
Удаление блоков с тишиной в начале и конце : Нет
При вычислениях CRC использовались нулевые сэмплы : Да
Интерфейс : Встроенный Win32-интерфейс для Win NT/2000
Выходной формат : Внутренние WAV-операции
Формат сэмплов : 44.100 Гц; 16 бит; стерео
TOC извлечённого CD
Трек | Старт | Длительность | Начальный сектор | Конечный сектор
---------------------------------------------------------------------
1 | 0:00.00 | 3:09.21 | 0 | 14195
2 | 3:09.21 | 2:37.57 | 14196 | 26027
3 | 5:47.03 | 1:48.57 | 26028 | 34184
4 | 7:35.60 | 1:28.63 | 34185 | 40847
5 | 9:04.48 | 2:03.74 | 40848 | 50146
6 | 11:08.47 | 2:00.00 | 50147 | 59146
7 | 13:08.47 | 2:22.18 | 59147 | 69814
8 | 15:30.65 | 2:22.07 | 69815 | 80471
9 | 17:52.72 | 2:26.44 | 80472 | 91465
10 | 20:19.41 | 2:58.07 | 91466 | 104822
11 | 23:17.48 | 2:18.43 | 104823 | 115215
12 | 25:36.16 | 1:41.65 | 115216 | 122855
13 | 27:18.06 | 1:51.65 | 122856 | 131245
14 | 29:09.71 | 3:12.52 | 131246 | 145697
15 | 32:22.48 | 3:25.66 | 145698 | 161138
16 | 35:48.39 | 3:04.62 | 161139 | 175000
17 | 38:53.26 | 2:47.60 | 175001 | 187585
18 | 41:41.11 | 2:38.74 | 187586 | 199509
19 | 44:20.10 | 4:15.10 | 199510 | 218644
20 | 48:35.20 | 3:34.26 | 218645 | 234720
21 | 52:09.46 | 2:49.43 | 234721 | 247438
22 | 54:59.14 | 3:00.14 | 247439 | 260952
23 | 57:59.28 | 3:40.07 | 260953 | 277459
24 | 61:39.35 | 2:47.62 | 277460 | 290046
25 | 64:27.22 | 2:26.17 | 290047 | 301013
26 | 66:53.39 | 7:06.13 | 301014 | 332976
27 | 73:59.52 | 3:33.28 | 332977 | 348979
Характеристики диапазона извлечения и сообщения об ошибках
Выбранный диапазон
Имя файла C:\Documents and Settings\glebov\Мои документы\Dogliotti-Condombe\Unknown Artist - Unknown Title.wav
Пиковый уровень 100.0 %
Качество диапазона 99.9 %
CRC копии D5169B80
Копирование... OK
Ошибок не произошло
AccurateRip: сводка
Трек 1 нет в базе данных
Трек 2 нет в базе данных
Трек 3 нет в базе данных
Трек 4 нет в базе данных
Трек 5 нет в базе данных
Трек 6 нет в базе данных
Трек 7 нет в базе данных
Трек 8 нет в базе данных
Трек 9 нет в базе данных
Трек 10 нет в базе данных
Трек 11 нет в базе данных
Трек 12 нет в базе данных
Трек 13 нет в базе данных
Трек 14 нет в базе данных
Трек 15 нет в базе данных
Трек 16 нет в базе данных
Трек 17 нет в базе данных
Трек 18 нет в базе данных
Трек 19 нет в базе данных
Трек 20 нет в базе данных
Трек 21 нет в базе данных
Трек 22 нет в базе данных
Трек 23 нет в базе данных
Трек 24 нет в базе данных
Трек 25 нет в базе данных
Трек 26 нет в базе данных
Трек 27 нет в базе данных
Ни одного трека нет в базе AccurateRip
Конец отчёта
Vampi Soul - это испанский лэйбл, специализирующийся на выпуске jazz/funk/soul/latin/rare groove 50-х, 60-х и 70-х годов. Они покупают права на раритетные виниловые релизы и выпускают на CD. Причем они не изменяют оформление пластинок и не "затачивают" звук под современные стандарты. В общем Vampi Soul - это винтаж и в первую очередь знак качества.http://www.vampisoul.com/ Другие раздачи Vampi Soul на rutracker.org
Download available for power users only.
06:16
212
Нет комментариев. Ваш будет первым!