Поиск

(Fusion/ECM) Eberhard Weber - Orchestra - 1988, APE (image+.cue)

(Fusion/ECM) Eberhard Weber - Orchestra - 1988, APE (image+.cue)
Треклист:
Eberhard Weber - Orchestra
Жанр: Fusion/ECM
Год выпуска диска: 1988
Производитель диска: Germany
Аудио кодек: APE
Тип рипа: image+.cue
Продолжительность: 51:00
Трэклист:
01. Seven Movements
02. Broken Silence
03. Before Dawn
04. Just A Moment
05. Air
06. Ready Out There
07. Too Early To Leave
08. One Summer's Evening
09. A Daydream
10. Trio
11. Epilogue
all composed by Weber
recorded May/August 1988, Tonstudio Bauer, Ludwigsburg
on tracks 1, 7: Herbert Joos, Anton Jillich, fluegelhorn; Wolfgang Czelusta, Andreas Richter, trombone; Winfried Rapp, bass trombone; Rudolf Diebetsberger, Thomas Hauschild, french horn; Franz Stagl, tuba; Eberhard Weber, bass, percussion
on track 8: Eberhard Weber, bass, keyboards
on all other tracks: Eberhard Weber, bass
 
Отчёт EAC
Exact Audio Copy V0.99 prebeta 4 from 23. January 2008
EAC extraction logfile from 14. May 2009, 18:50
Eberhard Weber / Orchestra
Used drive : HL-DT-STDVD-RAM GSA-H55N Adapter: 0 ID: 0
Read mode : Secure
Utilize accurate stream : Yes
Defeat audio cache : Yes
Make use of C2 pointers : No
Read offset correction : 102
Overread into Lead-In and Lead-Out : No
Fill up missing offset samples with silence : Yes
Delete leading and trailing silent blocks : No
Null samples used in CRC calculations : Yes
Used interface : Native Win32 interface for Win NT & 2000
Used output format : Internal WAV Routines
Sample format : 44.100 Hz; 16 Bit; Stereo
TOC of the extracted CD
Track | Start | Length | Start sector | End sector
---------------------------------------------------------
1 | 0:00.00 | 12:23.72 | 0 | 55796
2 | 12:23.72 | 2:03.00 | 55797 | 65021
3 | 14:26.72 | 5:27.00 | 65022 | 89546
4 | 19:53.72 | 2:39.00 | 89547 | 101471
5 | 22:32.72 | 4:19.70 | 101472 | 120966
6 | 26:52.67 | 5:13.03 | 120967 | 144444
7 | 32:05.70 | 3:11.00 | 144445 | 158769
8 | 35:16.70 | 4:13.00 | 158770 | 177744
9 | 39:29.70 | 3:25.02 | 177745 | 193121
10 | 42:54.72 | 4:01.73 | 193122 | 211269
11 | 46:56.70 | 4:01.35 | 211270 | 229379
Range status and errors
Selected range
Filename E:\Eberhard Weber - Orchestra\Eberhard Weber - Orchestra.wav
Peak level 62.1 %
Range quality 100.0 %
Copy CRC 1D57AD4B
Copy OK
No errors occurred
AccurateRip summary
Track 1 not present in database
Track 2 not present in database
Track 3 not present in database
Track 4 not present in database
Track 5 not present in database
Track 6 not present in database
Track 7 not present in database
Track 8 not present in database
Track 9 not present in database
Track 10 not present in database
Track 11 not present in database
None of the tracks are present in the AccurateRip database
End of status report
Download available for power users only.
06:17
170
Нет комментариев. Ваш будет первым!