Вы используете незарегистрированную версию компонента "Вкладки"!

Поиск

(Jazz/Bop/Post-Bop/Hard Bop) Alan Broadbent - You And The Night And The Music - 2003, WAVPack (image+.cue), lossless

(Jazz/Bop/Post-Bop/Hard Bop) Alan Broadbent - You And The Night And The Music - 2003, WAVPack (image+.cue), lossless
Треклист:
Alan Broadbent - You And The Night And The Music
Жанр: Jazz/Bop/Post-Bop/Hard Bop
Год выпуска диска: 2003
Производитель диска: U.S.A.
Аудио кодек: WAVPack
Тип рипа: image+.cue
Битрейт аудио: lossless
Продолжительность: 53:05
Трэклист:
1. You and the Night and the Music 7:06
2. I Wish I Knew 8:53
3. With the Wind and the Rain in Her Hair 6:40
4. Baubles, Bangles, and Beads 6:38
5. Ceora 7:55
6. What's New 8:00
7. Dearly Beloved 7:50
 
LOG
Exact Audio Copy V0.99 prebeta 4 from 23. January 2008
EAC extraction logfile from 19. January 2009, 17:52
Alan Broadbent / You And The Night And The Music
Used drive : PIONEER DVD-RW DVR-111 Adapter: 0 ID: 1
Read mode : Secure
Utilize accurate stream : Yes
Defeat audio cache : Yes
Make use of C2 pointers : No
Read offset correction : 48
Overread into Lead-In and Lead-Out : No
Fill up missing offset samples with silence : Yes
Delete leading and trailing silent blocks : No
Null samples used in CRC calculations : Yes
Used interface : Installed external ASPI interface
Used output format : Internal WAV Routines
Sample format : 44.100 Hz; 16 Bit; Stereo
TOC of the extracted CD
Track | Start | Length | Start sector | End sector
---------------------------------------------------------
1 | 0:00.00 | 7:06.32 | 0 | 31981
2 | 7:06.32 | 8:53.60 | 31982 | 72016
3 | 16:00.17 | 6:40.05 | 72017 | 102021
4 | 22:40.22 | 6:38.23 | 102022 | 131894
5 | 29:18.45 | 7:55.57 | 131895 | 167576
6 | 37:14.27 | 8:00.63 | 167577 | 203639
7 | 45:15.15 | 7:50.22 | 203640 | 238911
Range status and errors
Selected range
Filename C:\Alan Broadbent\Alan Broadbent - You And The Night And The Music.wav
Peak level 98.8 %
Range quality 99.9 %
Copy CRC 15399233
Copy OK
No errors occurred
End of status report
Any questions -> support@pro-jazz.com. По всем вопросам пишите -> support@pro-jazz.com
11:23
260
Нет комментариев. Ваш будет первым!