Вы используете незарегистрированную версию компонента "Вкладки"!

Поиск

(Free Improvisation, Post-Bop) Geri Allen - Eyes... In The Back Of Your Head - 1997, FLAC (image+.cue), lossless

Треклист:
Geri Allen - Eyes... In The Back Of Your Head
_______________________________________________________
Жанр: Free Improvisation, Post-Bop
Дата записи: Dec 14, 1995-Mar 1, 1996
Дата выпуска: 1997
Производитель диска, страна: Somethin' Else Records, Blue Note 7243 8 38297 2 9
Аудио кодек: FLAC
Тип рипа: (image + .cue)
Битрейт аудио: lossless
Включает: Full artwork, png
Продолжительность: 54:57
Источник: Моя коллекция
Риппер: Мой рип
Трэклист:
1. Mother Wit (Allen) - 3:05
2. New Eyes Opening (Allen) - 5:37
3. Vertical Flowing (Allen, Coleman) - 5:27
4. M.O.P.E. (Allen) - 6:11
5. FMFMF (For My Family, for My Friends) (Allen) - 5:34
6. Dark Eyes (Allen, Roney) - 4:20
7. Little Waltz (Carter) - 6:11
8. In the Back of Your Head (Allen, Roney) - 5:52
9. Windows to the Soul (Allen) - 5:11
10. The Eyes Have It (Allen, Coleman) - 7:23
Об исполнителе:
http://allmusic.com/cg/amg.dll?p=amg&sql=11:difpxqt5ld6e~T1
Об альбоме:
http://allmusic.com/cg/amg.dll?p=amg&sql=10:g9fuxq9jldhe
Состав:
Geri Allen - Synthesizer, Piano, Producer
Cyro Baptista - Percussion
Ornette Coleman - Sax (Alto)
Wallace Roney - Trumpet
Издания:
1997 CD Blue Note 38297
1997 CD EMI 5589
Мои раздачи на треккере - jazz / fusion / prog
 
Несколько слов на английском - by Scott Yanow
This is possibly pianist Geri Allen's most advanced release. Always a pianist with her own voice, the increasingly original Allen performs three atmospheric piano solos, including a version of Ron Carter's "Little Waltz," during which she adds a little bit of synthesizer. There is a duet with percussionist Cyro Baptista, two duets with altoist Ornette Coleman (who through the years has almost never recorded as a sideman), and four numbers in which Allen is joined by her husband trumpeter Wallace Roney (two of which also include Baptista). Except for the Ornette pieces, Allen is the dominant force throughout the intriguing set, which includes the very haunting "Windows to the Soul" (dedicated to the recently departed drummer Tony Williams). The music is mostly avant-garde, but purposeful and logical in its own fashion. Well worth several listens.
 
CD scan
 
Back scan
 
EAC log

Exact Audio Copy V0.99 prebeta 4 from 23. January 2008
EAC extraction logfile from 10. January 2009, 15:43
Geri Allen / Eyes... In The Back Of Your Head
Used drive : PIONEER DVD-RW DVR-112D Adapter: 0 ID: 0
Read mode : Secure
Utilize accurate stream : Yes
Defeat audio cache : Yes
Make use of C2 pointers : No
Read offset correction : 48
Overread into Lead-In and Lead-Out : No
Fill up missing offset samples with silence : Yes
Delete leading and trailing silent blocks : No
Null samples used in CRC calculations : Yes
Used interface : Installed external ASPI interface
Used output format : User Defined Encoder
Selected bitrate : 320 kBit/s
Quality : High
Add ID3 tag : Yes
Command line compressor : C:\Program Files\Exact Audio Copy\Flac\flac.exe
Additional command line options : -V -8 -T "artist=%a" -T "title=%t" -T "album=%g" -T "date=%y" -T "tracknumber=%n" -T "genre=%m" %s
TOC of the extracted CD
Track | Start | Length | Start sector | End sector
---------------------------------------------------------
1 | 0:00.00 | 3:06.35 | 0 | 13984
2 | 3:06.35 | 5:37.42 | 13985 | 39301
3 | 8:44.02 | 5:27.23 | 39302 | 63849
4 | 14:11.25 | 6:12.22 | 63850 | 91771
5 | 20:23.47 | 5:33.40 | 91772 | 116786
6 | 25:57.12 | 4:20.65 | 116787 | 136351
7 | 30:18.02 | 6:11.68 | 136352 | 164244
8 | 36:29.70 | 5:52.07 | 164245 | 190651
9 | 42:22.02 | 5:11.68 | 190652 | 214044
10 | 47:33.70 | 7:23.25 | 214045 | 247294
Range status and errors
Selected range
Filename D:\music\rip\Geri Allen - Eyes... In The Back Of Your Head (1997) {Somethin' Else Records, Blue Note 7243 8 38297 2 9}\Geri Allen - Eyes... In The Back Of Your Head.wav
Peak level 99.0 %
Range quality 100.0 %
Test CRC 17BFF37B
Copy CRC 17BFF37B
Copy OK
No errors occurred
AccurateRip summary
Track 1 not present in database
Track 2 not present in database
Track 3 not present in database
Track 4 not present in database
Track 5 not present in database
Track 6 not present in database
Track 7 not present in database
Track 8 not present in database
Track 9 not present in database
Track 10 not present in database
None of the tracks are present in the AccurateRip database
End of status report
 
Tau analiser
Я не сидирую все свои раздачи подолгу, только новые (до 3х первых сидов)
Предлагаю скачавшим максимально долго оставаться на раздаче - весь рейтинг будет ваш
Если нет сидов или раздача находится в архиве, попросите в топике или в ПМ, и я вернусь
Заботьтесь о своем рейтинге - приветствуется конвертация моих раздач в мп3 и выкладывание в соотвтствующем разделе
Any questions - support@pro-jazz.com.
Есть вопросы - support@pro-jazz.com
11:23
256
Нет комментариев. Ваш будет первым!