Поиск

(Jazz, World, Fusion) Oregon - Northwest Passage - 1997, APE (image+.cue), lossless

(Jazz, World, Fusion) Oregon - Northwest Passage - 1997, APE (image+.cue), lossless
Треклист:
Oregon - Northwest Passage
Жанр: Jazz, World, Fusion
Год выпуска диска: 1997
Аудио кодек: APE
Тип рипа: image+.cue
Битрейт аудио: lossless
Продолжительность: 56:47
Трэклист:
01. Take Heart
02. Don't Knock On My Door
03. Lost In The Hours
04. Over Your Shoulder
05. Claridade
06. Joyful Departure
07. Nightfall
08. Under A Dorian Sky
09. Fortune Cookie
10. Under The Mountain
11. L'Assassino Che Suona
12. Intro
13. Yet To Be
14. Northwest Passage
Доп. информация:
Musicians:
Paul McCandless - oboe, bass clarinet, soprano and sopranino saxes, whistles
Ralph Towner - guitars, pianos and synthesizers
Glen Moore - bass and piano
with
Arto Tuncboyaciyan - drums, percussion and voice
Mark Walker - drums and hand drums
 
Лог EAC
Exact Audio Copy V0.99 prebeta 3 from 28. July 2007
EAC extraction logfile from 18. June 2009, 16:22
Oregon / (1997) Northwest Passage
Used drive : PIONEER DVD-RW DVR-112D Adapter: 5 ID: 0
Read mode : Secure
Utilize accurate stream : Yes
Defeat audio cache : Yes
Make use of C2 pointers : No
Read offset correction : 48
Overread into Lead-In and Lead-Out : No
Fill up missing offset samples with silence : Yes
Delete leading and trailing silent blocks : No
Null samples used in CRC calculations : Yes
Used interface : Native Win32 interface for Win NT & 2000
Used output format : Monkey's Audio Lossless Encoder
Selected bitrate : High Lossless Compression
Quality : High
Add ID3 tag : Yes
Command line compressor : C:\Program Files\Monkey's Audio\MAC.exe
Additional command line options : %s %d -c3000
TOC of the extracted CD
Track | Start | Length | Start sector | End sector
---------------------------------------------------------
1 | 0:00.00 | 5:12.62 | 0 | 23461
2 | 5:12.62 | 2:12.58 | 23462 | 33419
3 | 7:25.45 | 5:39.27 | 33420 | 58871
4 | 13:04.72 | 1:42.08 | 58872 | 66529
5 | 14:47.05 | 6:36.60 | 66530 | 96289
6 | 21:23.65 | 6:32.60 | 96290 | 125749
7 | 27:56.50 | 8:37.70 | 125750 | 164594
8 | 36:34.45 | 1:20.60 | 164595 | 170654
9 | 37:55.30 | 4:50.17 | 170655 | 192421
10 | 42:45.47 | 1:52.28 | 192422 | 200849
11 | 44:38.00 | 3:35.07 | 200850 | 216981
12 | 48:13.07 | 1:22.35 | 216982 | 223166
13 | 49:35.42 | 4:14.08 | 223167 | 242224
14 | 53:49.50 | 2:57.17 | 242225 | 255516
Range status and errors
Selected range
Filename D:\Documents\Lss\New_Rip\Oregon\Oregon - Northwest Passage.wav
Peak level 100.0 %
Range quality 99.9 %
Copy CRC 7A54360B
Copy OK
No errors occurred
End of status report
Download available for power users only.
06:43
211
Нет комментариев. Ваш будет первым!