Поиск

(Jazz, World, Fusion) Oregon - Always, Never and Forever - 1991, APE (image+.cue), lossless

(Jazz, World, Fusion) Oregon - Always, Never and Forever - 1991, APE (image+.cue), lossless
Треклист:
Oregon - Always, Never and Forever
Жанр: Jazz, World, Fusion
Год выпуска диска: 1991
Аудио кодек: APE
Тип рипа: image+.cue
Битрейт аудио: lossless
Продолжительность: 1:01:18
Трэклист:
1 Beppo (Towner)
2 Balahto (Gurtu)
3 Renewal (Towner)
4 Oleander (McCandless)
5 Rapid Transit (Towner)
6 When the Fire Burns Low (Towner)
7 Aurora (Towner)
8 Playground in Nuclear Winter (Oregon)
9 Guitarra Picante (Towner)
10 Apology Nicaragua (Moore)
11 Big Fat Orange (Walcott)
12 Always, Never, And Forever (Moore)
Доп. информация:
Musicians:
Paul McCandless - oboe, bass clarinet, soprano and sopranino saxes, whistles
Ralph Towner - guitars, pianos and synthesizers
Glen Moore - bass and piano
Trilok Gurtu - percussion and voice
 
Лог EAC
Exact Audio Copy V0.99 prebeta 3 from 28. July 2007
EAC extraction logfile from 18. June 2009, 16:50
Oregon / Always, Never and Forever
Used drive : PIONEER DVD-RW DVR-112D Adapter: 5 ID: 0
Read mode : Secure
Utilize accurate stream : Yes
Defeat audio cache : Yes
Make use of C2 pointers : No
Read offset correction : 48
Overread into Lead-In and Lead-Out : No
Fill up missing offset samples with silence : Yes
Delete leading and trailing silent blocks : No
Null samples used in CRC calculations : Yes
Used interface : Native Win32 interface for Win NT & 2000
Used output format : Monkey's Audio Lossless Encoder
Selected bitrate : High Lossless Compression
Quality : High
Add ID3 tag : Yes
Command line compressor : C:\Program Files\Monkey's Audio\MAC.exe
Additional command line options : %s %d -c3000
TOC of the extracted CD
Track | Start | Length | Start sector | End sector
---------------------------------------------------------
1 | 0:00.00 | 5:42.55 | 0 | 25704
2 | 5:42.55 | 6:23.72 | 25705 | 54501
3 | 12:06.52 | 5:28.73 | 54502 | 79174
4 | 17:35.50 | 2:56.15 | 79175 | 92389
5 | 20:31.65 | 6:48.32 | 92390 | 123021
6 | 27:20.22 | 3:43.15 | 123022 | 139761
7 | 31:03.37 | 5:32.03 | 139762 | 164664
8 | 36:35.40 | 4:56.37 | 164665 | 186901
9 | 41:32.02 | 4:39.20 | 186902 | 207846
10 | 46:11.22 | 4:39.10 | 207847 | 228781
11 | 50:50.32 | 2:56.70 | 228782 | 242051
12 | 53:47.27 | 7:30.18 | 242052 | 275819
Range status and errors
Selected range
Filename D:\Documents\Lss\New_Rip\Oregon\Oregon - Always, Never and Forever\Oregon - Always, Never and Forever.wav
Peak level 96.4 %
Range quality 99.9 %
Copy CRC DAF9D8C0
Copy OK
No errors occurred
End of status report
По всем вопросам пишите личное сообщение пользователю M0p94ok.
06:42
182
Нет комментариев. Ваш будет первым!