Поиск

(Jazz, World Fusion, Latin Jazz) Egberto Gismonti - Solo - 1979, FLAC (image+.cue), lossless

(Jazz, World Fusion, Latin Jazz) Egberto Gismonti - Solo - 1979, FLAC (image+.cue), lossless
Egberto Gismonti - Solo
Жанр: Jazz, World Fusion. Latin Jazz
Год выпуска диска: 1979
Аудио кодек: FLAC
Тип рипа: image+.cue
Битрейт аудио: lossless
Продолжительность: 53:02
Лэйбл: ECM
Каталог: 1136
Трэклист:
01. Selva Amazonica - Pau Rolou;
02. And Zero;
03. Frevo;
04. Salvador;
05. Ciranda Nordestina.
Egberto Gismonti: guitars, surdo, piano, cooking bells, voice.
Доп. информация:
Источник: torrent.
Обзор альбома:
http://allmusic.com/cg/amg.dll?p=amg&sql=10:kifoxqlgldde
 
Отчет EAC
Exact Audio Copy V0.99 prebeta 4 from 23. January 2008
EAC extraction logfile from 28. January 2009, 14:05
Egberto Gismonti / Solo
Used drive : PLEXTOR DVDR PX-750A Adapter: 0 ID: 1
Read mode : Secure
Utilize accurate stream : Yes
Defeat audio cache : Yes
Make use of C2 pointers : No
Read offset correction : 102
Overread into Lead-In and Lead-Out : No
Fill up missing offset samples with silence : Yes
Delete leading and trailing silent blocks : No
Null samples used in CRC calculations : Yes
Used interface : Installed external ASPI interface
Used output format : User Defined Encoder
Selected bitrate : 768 kBit/s
Quality : High
Add ID3 tag : No
Command line compressor : C:\Program Files\Exact Audio Copy\FLAC\FLAC.EXE
Additional command line options : -6 -V -T "ARTIST=%a" -T "TITLE=%t" -T "ALBUM=%g" -T "DATE=%y" -T "TRACKNUMBER=%n" -T "GENRE=%m" -T "COMMENT=%e" %s -o %d
TOC of the extracted CD
Track | Start | Length | Start sector | End sector
---------------------------------------------------------
1 | 0:00.33 | 20:10.00 | 33 | 90782
2 | 20:10.33 | 6:56.47 | 90783 | 122029
3 | 27:07.05 | 9:17.03 | 122030 | 163807
4 | 36:24.08 | 6:40.52 | 163808 | 193859
5 | 43:04.60 | 9:57.48 | 193860 | 238682
Range status and errors
Selected range
Filename G:\rip\Egberto Gismonti - Solo.wav
Peak level 78.2 %
Range quality 100.0 %
Copy CRC 39999730
Copy OK
No errors occurred
AccurateRip summary
Track 1 accurately ripped (confidence 3) [1636D423]
Track 2 accurately ripped (confidence 3) [13F9333E]
Track 3 accurately ripped (confidence 3) [D5065F13]
Track 4 accurately ripped (confidence 3) [90061549]
Track 5 accurately ripped (confidence 3) [3803C7D7]
All tracks accurately ripped
End of status report
Приятного прослушивания!
05:34
296
Нет комментариев. Ваш будет первым!