Поиск

(Bossa nova, Jazz) VA - The Best Of Bossa. Pure Bossa Nova - 2005, APE (image+.cue), lossless

(Bossa nova, Jazz) VA - The Best Of Bossa. Pure Bossa Nova - 2005, APE (image+.cue), lossless
Треклист:
Various Artists - The Best Of Bossa. Pure Bossa Nova
Жанр: Bossa nova, Jazz
Год выпуска диска: 2005
Производитель диска: Бразилия
Аудио кодек: APE
Тип рипа: image+.cue
Битрейт аудио: lossless
Продолжительность: 0:35:54.73
Трэклист:
1. Brigas, Nunca mais Elis Regina, Antonio Carlos Jobim, 1:36
2. Ela E Carioca Os Cariocas, 2:36
3. Desafinado Stan Getz, Joao Gilberto, 4:11
4. Tem Do De Mim Carlos Lyra, 1:57
5. Cheiro De Saudade Lucio Alves, 2:15
6. Samba De Verao Doris Monteiro, 2:20
7. Voce Norma Bengell, Dick Farney, 2:28
8. Temoinho Bom Roberto Menescal, 2:52
9. Lobo Bobo/Saudade fez Um Samba/Voce E Eu/Se E Tarde, Me Perdoa Leila Pinheiro, 3:56
10. Samba De Uma Nota So (One Note Samba) Antonio Carlos Jobim, 2:14
11. Sambou, Sambou Joao Donato, "Seu Trio", 2:17
12. So Tinha De Ser Com Voce "Tamba Trio", 2:06
13. Tristeza De Nos Dois Emilio Santiago, 2:54
14. Influencia Do Jazz (Live) Leny Andrade, 2:37
 
Отчёт EAC
Exact Audio Copy V0.99 prebeta 4 from 23. January 2008
Отчёт EAC об извлечении, выполненном 29. января 2009, 10:17
Various / Pure Bossa Nova - A View On The Standards
Дисковод: ASUS CRW-5232AS Adapter: 1 ID: 1
Режим чтения : Достоверность
Использование точного потока : Да
Отключение кэша аудио : Да
Использование указателей C2 : Нет
Коррекция смещения при чтении : 6
Способность читать области Lead-in и Lead-out : Нет
Заполнение пропущенных сэмплов тишиной : Да
Удаление блоков с тишиной в начале и конце : Нет
При вычислениях CRC использовались нулевые сэмплы : Да
Интерфейс : Установленный внешний ASPI-интерфейс
Выходной формат : Внутренние WAV-операции
Формат сэмплов : 44.100 Гц; 16 бит; стерео
TOC извлечённого CD
Трек | Старт | Длительность | Начальный сектор | Конечный сектор
---------------------------------------------------------------------
1 | 0:00.00 | 1:37.72 | 0 | 7346
2 | 1:37.72 | 2:34.60 | 7347 | 18956
3 | 4:12.57 | 3:57.05 | 18957 | 36736
4 | 8:09.62 | 1:56.60 | 36737 | 45496
5 | 10:06.47 | 2:13.60 | 45497 | 55531
6 | 12:20.32 | 2:18.62 | 55532 | 65943
7 | 14:39.19 | 2:27.30 | 65944 | 76998
8 | 17:06.49 | 2:50.72 | 76999 | 89820
9 | 19:57.46 | 3:55.18 | 89821 | 107463
10 | 23:52.64 | 2:14.55 | 107464 | 117568
11 | 26:07.44 | 2:17.53 | 117569 | 127896
12 | 28:25.22 | 2:06.45 | 127897 | 137391
13 | 30:31.67 | 2:53.25 | 137392 | 150391
14 | 33:25.17 | 2:29.56 | 150392 | 161622
Характеристики диапазона извлечения и сообщения об ошибках
Выбранный диапазон
Имя файла D:\Папина\Загрузки Торрент\Музыка\Bossa nova1\Various - Pure Bossa Nova - A View On The Standards.wav
Пиковый уровень 100.0 %
Качество диапазона 100.0 %
CRC копии 788534EA
Копирование... OK
Ошибок не произошло
Конец отчёта
05:33
224
Нет комментариев. Ваш будет первым!