Поиск

(Jazz) Trilok Gurtu - Living Magic - 1991, FLAC (image + .cue), lossless

(Jazz) Trilok Gurtu - Living Magic - 1991, FLAC (image + .cue), lossless
Trilok Gurtu - Living Magic
Страна: Germany
Жанр: Jazz
Год выпуска: 1991
Формат: FLAC (image + .cue)
Битрейт аудио: lossless
Продолжительность: 42:35
Трэклист:
1 - Baba (Trilok Gurtu) 8'27"
2 - Living Magic (Trilok Gurtu, Daniel Goyone) 6'24"
3 - Once I Wished a Tree Upside Down (Jan Garbarek) 8'00"
4 - Transition (Trilok Gurtu) 7'29"
5 - From Scratch (Trilok Gurtu) 2'24"
6 - Tac, et demi (Trilok Gurtu, Daniel Goyone) 6'35"
7 - TMNOK (Daniel Goyone) 2'53"
Trilok Gurtu: drums, tabla, voice, congas, percussion
Jan Garbarek: tenor & soprano saxophones
Nana Vasconcelos: congas, repenique, voice, percussion
Daniel Goyone: keyboard, piano
Nicolas Fiszman: bass, guitar
Tunde Jegede: kora, piano
Shanthi Rao: veena
Recorded by Walter Quintus at Ztudio Zerkall, Germany, August 1990 & March 1991
 
EAC Report
Exact Audio Copy V0.99 prebeta 3 from 28. July 2007
EAC extraction logfile from 24. January 2008, 21:38
Trilok Gurtu / Living Magic
Used drive : MATSHITADVD-RAM UJ-840S Adapter: 1 ID: 0
Read mode : Secure
Utilize accurate stream : Yes
Defeat audio cache : No
Make use of C2 pointers : Yes
Read offset correction : 102
Overread into Lead-In and Lead-Out : No
Fill up missing offset samples with silence : Yes
Delete leading and trailing silent blocks : No
Null samples used in CRC calculations : No
Used interface : Native Win32 interface for Win NT & 2000
Used output format : User Defined Encoder
Selected bitrate : 1024 kBit/s
Quality : High
Add ID3 tag : No
Command line compressor : C:\Program Files\Exact Audio Copy\FLAC\FLAC.EXE
Additional command line options : -6 -V -T "ARTIST=%a" -T "TITLE=%t" -T "ALBUM=%g" -T "DATE=%y" -T "TRACKNUMBER=%n" -T "GENRE=%m" -T "COMMENT=%e" %s -o %d
TOC of the extracted CD
Track | Start | Length | Start sector | End sector
---------------------------------------------------------
1 | 0:00.33 | 8:33.22 | 33 | 38529
2 | 8:33.55 | 6:28.05 | 38530 | 67634
3 | 15:01.60 | 8:02.40 | 67635 | 103824
4 | 23:04.25 | 7:33.48 | 103825 | 137847
5 | 30:37.73 | 2:26.55 | 137848 | 148852
6 | 33:04.53 | 6:35.72 | 148853 | 178549
7 | 39:40.50 | 2:54.58 | 178550 | 191657
Range status and errors
Selected range
Filename C:\Documents and Settings\Igor\My Documents\Lina\Trilok Gurtu - Living Magic.wav
Peak level 100.0 %
Range quality 100.0 %
Copy CRC 3E5AA112
Copy OK
No errors occurred
AccurateRip summary
Track 1 cannot be verified as accurate (confidence 1) [F7A977D9], AccurateRip returned [8031235F]
Track 2 not present in database
Track 3 not present in database
Track 4 not present in database
Track 5 not present in database
Track 6 not present in database
Track 7 not present in database
1 track(s) could not be verified as accurate
6 track(s) not present in the AccurateRip database
No tracks could be verified as accurate
You may have a different pressing from the one(s) in the database
End of status report
ТОРРЕНТ ПЕРЕЗАЛИТ 24.05.2017, 13:37 МСК по техническим причинам. Содержимое не менялось.
Просьба ко всем ранее скачавшим, присоединяться к раздаче.
01:10
471
Нет комментариев. Ваш будет первым!