Поиск

(Jazz) Oregon - 1000 Kilometers - 2007, FLAC (image + .cue), lossless

(Jazz) Oregon - 1000 Kilometers - 2007, FLAC (image + .cue), lossless
Треклист:
Oregon - 1000 Kilometers
Страна: USA
Жанр: Jazz
Год выпуска: 2007
Формат: FLAC (image + .cue)
Битрейт аудио: lossless
Продолжительность: 1:02:06
Трэклист:
1 Deep Six - 4:23
2 From a Dream - 1:02
3 Catching Up - 8:15
4 1000 Kilometers - 10:30
5 Bayonne - 6:31
6 Simone - 5:54
7 Free Imp - 1:46
8 Back Pocket - 2:59
9 Relentless Imp - 3:35
10 Paraglide - 6:57
11 Bactrian - 8:05
12 1000 Kilometers (Reprise) - 2:03
Glen Moore - Double Bass
Mark Walker - Percussion, Drums, Synthesizer Drums
Paul McCandless - Soprano, Clarinet (Bass), Horn, Horn (English), Oboe
Ralph Towner - Piano, Keyboards, Guitar (Classical), Synth Guitar
 
EAC Report
Exact Audio Copy V0.99 prebeta 3 from 28. July 2007
EAC extraction logfile from 26. January 2008, 23:47
Oregon / 1000 Kilometers
Used drive : MATSHITADVD-RAM UJ-840S Adapter: 1 ID: 0
Read mode : Secure
Utilize accurate stream : Yes
Defeat audio cache : No
Make use of C2 pointers : Yes
Read offset correction : 102
Overread into Lead-In and Lead-Out : No
Fill up missing offset samples with silence : Yes
Delete leading and trailing silent blocks : No
Null samples used in CRC calculations : No
Used interface : Native Win32 interface for Win NT & 2000
Used output format : User Defined Encoder
Selected bitrate : 1024 kBit/s
Quality : High
Add ID3 tag : No
Command line compressor : C:\Program Files\Exact Audio Copy\FLAC\FLAC.EXE
Additional command line options : -6 -V -T "ARTIST=%a" -T "TITLE=%t" -T "ALBUM=%g" -T "DATE=%y" -T "TRACKNUMBER=%n" -T "GENRE=%m" -T "COMMENT=%e" %s -o %d
TOC of the extracted CD
Track | Start | Length | Start sector | End sector
---------------------------------------------------------
1 | 0:00.00 | 4:23.18 | 0 | 19742
2 | 4:23.18 | 1:02.28 | 19743 | 24420
3 | 5:25.46 | 8:15.17 | 24421 | 61562
4 | 13:40.63 | 10:30.18 | 61563 | 108830
5 | 24:11.06 | 6:31.67 | 108831 | 138222
6 | 30:42.73 | 5:54.48 | 138223 | 164820
7 | 36:37.46 | 1:46.58 | 164821 | 172828
8 | 38:24.29 | 2:59.57 | 172829 | 186310
9 | 41:24.11 | 3:35.73 | 186311 | 202508
10 | 45:00.09 | 6:57.14 | 202509 | 233797
11 | 51:57.23 | 8:05.45 | 233798 | 270217
12 | 60:02.68 | 2:03.41 | 270218 | 279483
Range status and errors
Selected range
Filename C:\Documents and Settings\Igor\My Documents\Lina\Oregon - 1000 Kilometers.wav
Peak level 95.3 %
Range quality 100.0 %
Copy CRC 54792789
Copy OK
No errors occurred
AccurateRip summary
Track 1 accurately ripped (confidence 1) [4D95776F]
Track 2 accurately ripped (confidence 1) [883493F2]
Track 3 accurately ripped (confidence 1) [F0D70FCC]
Track 4 accurately ripped (confidence 1) [59A729D3]
Track 5 accurately ripped (confidence 1) [FA3C7BC5]
Track 6 accurately ripped (confidence 1) [04DF0290]
Track 7 accurately ripped (confidence 1) [2F333318]
Track 8 accurately ripped (confidence 1) [F8C0762B]
Track 9 accurately ripped (confidence 1) [8FC6C986]
Track 10 accurately ripped (confidence 1) [68B3CF2D]
Track 11 accurately ripped (confidence 1) [4C8563FB]
Track 12 accurately ripped (confidence 1) [6825734E]
All tracks accurately ripped
End of status report
ТОРРЕНТ ПЕРЕЗАЛИТ по техническим причинам. Содержимое не менялось.
Просьба ко всем ранее скачавшим, присоединяться к раздаче.
00:11
409
Нет комментариев. Ваш будет первым!