Поиск

(jazz, tango) Quadro Nuevo-Tango Bitter Sweet - 2006, FLAC (tracks), lossless

(jazz, tango) Quadro Nuevo-Tango Bitter Sweet - 2006, FLAC (tracks), lossless
Quadro Nuevo-Tango Bitter Sweet
Жанр: jazz, tango
Год выпуска: 2006
Формат: FLAC (tracks)
Битрейт аудио: lossless
Продолжительность: 69:47
Трэклист:
01 - L' ete Indien (04:52 min.) [716kbp/s]
02 - Swing Vagabond (04:32 min.) [720kbp/s]
03 - Petite Fleur (04:08 min.) [675kbp/s]
04 - Tango Bitter Sweet (03:50 min.) [709kbp/s]
05 - Paroles, Paroles (04:44 min.) [681kbp/s]
06 - The Windmills of Your Mind (01:54 min.) [683kbp/s]
07 - Tango Jalousie (05:08 min.) [757kbp/s]
08 - Avant De Mourir (04:13 min.) [720kbp/s]
09 - Malafemmena (04:20 min.) [689kbp/s]
10 - Milonga Tati (04:43 min.) [679kbp/s]
11 - Et Maintenant (05:11 min.) [769kbp/s]
12 - An Einem Winterabend (03:28 min.) [712kbp/s]
13 - Mude Sonne (04:35 min.) [734kbp/s]
14 - Isla De Las Mujeres (02:02 min.) [784kbp/s]
15 - Gloomy Sunday (04:06 min.) [674kbp/s]
16 - Afternoon (01:31 min.) [619kbp/s]
17 - At Night (02:55 min.) [718kbp/s]
18 - Sabre Dance (03:35 min.) [779kbp/s]
Доп. информация: Еще один альбом этой великоллепной группой!Желаю всем хорошее настроение с их виртуозным интерпретациям музикального стиля ТАНГО!
 
Отчёт EAC
EAC extraction logfile from 13. July 2007, 13:12 for CD
Quadro Nuevo / Tango Bitter Sweet
Used drive : HL-DT-STDVDRAM GSA-H10N Adapter: 0 ID: 1
Read mode : Secure with NO C2, accurate stream, disable cache
Read offset correction : 667
Overread into Lead-In and Lead-Out : No
Used output format : C:\Program Files\FLAC\flac.exe (User Defined Encoder)
320 kBit/s
Additional command line options : -V -5 -T "artist=%a" -T "title=%t" -T "album=%g" -T "date=%y" -T "tracknumber=%n" -T "genre=%m" %s
Other options :
Fill up missing offset samples with silence : Yes
Delete leading and trailing silent blocks : No
Installed external ASPI interface
Track 1
Filename H:\Music\MUSIC OF THE WORLD\Quadro Nuevo - Tango Bitter Sweet 2006\01 - L' ete Indien.wav
Pre-gap length 0:00:02.00
Peak level 98.8 %
Track quality 100.0 %
Test CRC ACA621B0
Copy CRC ACA621B0
Copy OK
Track 2
Filename H:\Music\MUSIC OF THE WORLD\Quadro Nuevo - Tango Bitter Sweet 2006\02 - Swing Vagabond.wav
Peak level 98.8 %
Track quality 100.0 %
Test CRC 2B93ACB4
Copy CRC 2B93ACB4
Copy OK
Track 3
Filename H:\Music\MUSIC OF THE WORLD\Quadro Nuevo - Tango Bitter Sweet 2006\03 - Petite Fleur.wav
Pre-gap length 0:00:02.00
Peak level 98.8 %
Track quality 100.0 %
Test CRC F426739C
Copy CRC F426739C
Copy OK
Track 4
Filename H:\Music\MUSIC OF THE WORLD\Quadro Nuevo - Tango Bitter Sweet 2006\04 - Tango Bitter Sweet.wav
Pre-gap length 0:00:02.00
Peak level 98.8 %
Track quality 100.0 %
Test CRC D6A1B19E
Copy CRC D6A1B19E
Copy OK
Track 5
Filename H:\Music\MUSIC OF THE WORLD\Quadro Nuevo - Tango Bitter Sweet 2006\05 - Paroles, Paroles.wav
Pre-gap length 0:00:02.00
Peak level 98.8 %
Track quality 99.9 %
Test CRC 7E91FC45
Copy CRC 7E91FC45
Copy OK
Track 6
Filename H:\Music\MUSIC OF THE WORLD\Quadro Nuevo - Tango Bitter Sweet 2006\06 - The Windmills of Your Mind.wav
Pre-gap length 0:00:02.10
Peak level 98.8 %
Track quality 100.0 %
Test CRC 6BC57F8A
Copy CRC 6BC57F8A
Copy OK
Track 7
Filename H:\Music\MUSIC OF THE WORLD\Quadro Nuevo - Tango Bitter Sweet 2006\07 - Tango Jalousie.wav
Pre-gap length 0:00:02.00
Peak level 98.8 %
Track quality 100.0 %
Test CRC D77C967E
Copy CRC D77C967E
Copy OK
Track 8
Filename H:\Music\MUSIC OF THE WORLD\Quadro Nuevo - Tango Bitter Sweet 2006\08 - Avant De Mourir.wav
Pre-gap length 0:00:02.00
Peak level 98.8 %
Track quality 100.0 %
Test CRC DF790C71
Copy CRC DF790C71
Copy OK
Track 9
Filename H:\Music\MUSIC OF THE WORLD\Quadro Nuevo - Tango Bitter Sweet 2006\09 - Malafemmena.wav
Pre-gap length 0:00:01.16
Peak level 98.8 %
Track quality 100.0 %
Test CRC C8200075
Copy CRC C8200075
Copy OK
Track 10
Filename H:\Music\MUSIC OF THE WORLD\Quadro Nuevo - Tango Bitter Sweet 2006\10 - Milonga Tati.wav
Pre-gap length 0:00:02.00
Peak level 98.8 %
Track quality 100.0 %
Test CRC A24CA2D6
Copy CRC A24CA2D6
Copy OK
Track 11
Filename H:\Music\MUSIC OF THE WORLD\Quadro Nuevo - Tango Bitter Sweet 2006\11 - Et Maintenant.wav
Pre-gap length 0:00:02.94
Peak level 98.8 %
Track quality 100.0 %
Test CRC 4D888983
Copy CRC 4D888983
Copy OK
Track 12
Filename H:\Music\MUSIC OF THE WORLD\Quadro Nuevo - Tango Bitter Sweet 2006\12 - An Einem Winterabend.wav
Pre-gap length 0:00:01.10
Peak level 98.8 %
Track quality 100.0 %
Test CRC 8C4A457D
Copy CRC 8C4A457D
Copy OK
Track 13
Filename H:\Music\MUSIC OF THE WORLD\Quadro Nuevo - Tango Bitter Sweet 2006\13 - Mude Sonne.wav
Pre-gap length 0:00:02.00
Peak level 98.8 %
Track quality 100.0 %
Test CRC 638DBD9D
Copy CRC 638DBD9D
Copy OK
Track 14
Filename H:\Music\MUSIC OF THE WORLD\Quadro Nuevo - Tango Bitter Sweet 2006\14 - Isla De Las Mujeres.wav
Peak level 98.8 %
Track quality 99.9 %
Test CRC 347A14CB
Copy CRC 347A14CB
Copy OK
Track 15
Filename H:\Music\MUSIC OF THE WORLD\Quadro Nuevo - Tango Bitter Sweet 2006\15 - Gloomy Sunday.wav
Pre-gap length 0:00:01.69
Peak level 98.8 %
Track quality 100.0 %
Test CRC 3B9A57EF
Copy CRC 3B9A57EF
Copy OK
Track 16
Filename H:\Music\MUSIC OF THE WORLD\Quadro Nuevo - Tango Bitter Sweet 2006\16 - Afternoon.wav
Peak level 98.8 %
Track quality 100.0 %
Test CRC E71FB575
Copy CRC E71FB575
Copy OK
Track 17
Filename H:\Music\MUSIC OF THE WORLD\Quadro Nuevo - Tango Bitter Sweet 2006\17 - At Night.wav
Peak level 98.8 %
Track quality 100.0 %
Test CRC DC68F9B9
Copy CRC DC68F9B9
Copy OK
Track 18
Filename H:\Music\MUSIC OF THE WORLD\Quadro Nuevo - Tango Bitter Sweet 2006\18 - Sabre Dance.wav
Pre-gap length 0:00:03.30
Peak level 98.8 %
Track quality 100.0 %
Test CRC E38B5206
Copy CRC E38B5206
Copy OK
No errors occured
End of status report
 
Содержание индексной карты (.CUE)
REM GENRE Jazz
REM DATE 2006
REM DISCID 18106612
REM COMMENT "ExactAudioCopy v0.95b4"
PERFORMER "Quadro Nuevo"
TITLE "Tango Bitter Sweet"
FILE "01 - L' ete Indien.wav" WAVE
TRACK 01 AUDIO
TITLE "L' ete Indien"
PERFORMER "Quadro Nuevo"
INDEX 01 00:00:00
FILE "02 - Swing Vagabond.wav" WAVE
TRACK 02 AUDIO
TITLE "Swing Vagabond"
PERFORMER "Quadro Nuevo"
INDEX 01 00:00:00
FILE "03 - Petite Fleur.wav" WAVE
TRACK 03 AUDIO
TITLE "Petite Fleur"
PERFORMER "Quadro Nuevo"
INDEX 00 00:00:00
INDEX 01 00:02:00
FILE "04 - Tango Bitter Sweet.wav" WAVE
TRACK 04 AUDIO
TITLE "Tango Bitter Sweet"
PERFORMER "Quadro Nuevo"
INDEX 00 00:00:00
INDEX 01 00:02:00
FILE "05 - Paroles, Paroles.wav" WAVE
TRACK 05 AUDIO
TITLE "Paroles, Paroles"
PERFORMER "Quadro Nuevo"
INDEX 00 00:00:00
INDEX 01 00:02:00
FILE "06 - The Windmills of Your Mind.wav" WAVE
TRACK 06 AUDIO
TITLE "The Windmills of Your Mind"
PERFORMER "Quadro Nuevo"
INDEX 00 00:00:00
INDEX 01 00:02:08
FILE "07 - Tango Jalousie.wav" WAVE
TRACK 07 AUDIO
TITLE "Tango Jalousie"
PERFORMER "Quadro Nuevo"
INDEX 00 00:00:00
INDEX 01 00:02:00
FILE "08 - Avant De Mourir.wav" WAVE
TRACK 08 AUDIO
TITLE "Avant De Mourir"
PERFORMER "Quadro Nuevo"
INDEX 00 00:00:00
INDEX 01 00:02:00
FILE "09 - Malafemmena.wav" WAVE
TRACK 09 AUDIO
TITLE "Malafemmena"
PERFORMER "Quadro Nuevo"
INDEX 00 00:00:00
INDEX 01 00:01:12
FILE "10 - Milonga Tati.wav" WAVE
TRACK 10 AUDIO
TITLE "Milonga Tati"
PERFORMER "Quadro Nuevo"
INDEX 00 00:00:00
INDEX 01 00:02:00
FILE "11 - Et Maintenant.wav" WAVE
TRACK 11 AUDIO
TITLE "Et Maintenant"
PERFORMER "Quadro Nuevo"
INDEX 00 00:00:00
INDEX 01 00:02:71
FILE "12 - An Einem Winterabend.wav" WAVE
TRACK 12 AUDIO
TITLE "An Einem Winterabend"
PERFORMER "Quadro Nuevo"
INDEX 00 00:00:00
INDEX 01 00:01:08
FILE "13 - Mude Sonne.wav" WAVE
TRACK 13 AUDIO
TITLE "Mude Sonne"
PERFORMER "Quadro Nuevo"
INDEX 00 00:00:00
INDEX 01 00:02:00
FILE "14 - Isla De Las Mujeres.wav" WAVE
TRACK 14 AUDIO
TITLE "Isla De Las Mujeres"
PERFORMER "Quadro Nuevo"
INDEX 01 00:00:00
FILE "15 - Gloomy Sunday.wav" WAVE
TRACK 15 AUDIO
TITLE "Gloomy Sunday"
PERFORMER "Quadro Nuevo"
INDEX 00 00:00:00
INDEX 01 00:01:52
FILE "16 - Afternoon.wav" WAVE
TRACK 16 AUDIO
TITLE "Afternoon"
PERFORMER "Quadro Nuevo"
INDEX 01 00:00:00
FILE "17 - At Night.wav" WAVE
TRACK 17 AUDIO
TITLE "At Night"
PERFORMER "Quadro Nuevo"
INDEX 01 00:00:00
FILE "18 - Sabre Dance.wav" WAVE
TRACK 18 AUDIO
TITLE "Sabre Dance"
PERFORMER "Quadro Nuevo"
INDEX 00 00:00:00
INDEX 01 00:03:23
00:12
426
Нет комментариев. Ваш будет первым!