Поиск

(jazz, tango) Quadro Nuevo-Canzone Della Strada - 2002, FLAC (tracks), lossless

(jazz, tango) Quadro Nuevo-Canzone Della Strada - 2002, FLAC (tracks), lossless
Треклист:
Quadro Nuevo-Canzone Della Strada
Жанр: jazz, tango
Год выпуска: 2002
Формат: FLAC (tracks)
Битрейт аудио: lossless
Продолжительность: 53:20
Трэклист:
01 - Roma Nun Fa La Stupida Stasera (03:13 min.) [758kbp/s]
02 - Tu Vuo' Fa' l'Americano (03:57 min.) [735kbp/s]
03 - La Luna Si Veste d'Argento (04:31 min.) [721kbp/s]
04 - Chitarra Romana (04:10 min.) [801kbp/s]
05 - Serenata Celeste (03:26 min.) [730kbp/s]
06 - Canzone Della Strada (04:41 min.) [753kbp/s]
07 - Valzer Dottore (04:59 min.) [729kbp/s]
08 - Tango Del Mare (03:49 min.) [766kbp/s]
09 - Firenze Sogna (03:50 min.) [764kbp/s]
10 - Arrivederci Roma (04:27 min.) [717kbp/s]
11 - Tarantella (04:49 min.) [728kbp/s]
12 - Per Il Mio Amore (04:25 min.) [707kbp/s]
13 - Arrivederci (03:03 min.) [729kbp/s]
Доп. информация: Еще один альбом этой волшебной группой, в котором музиканты как бы говорят нам - ТАНГО, да но на италианском...
 
Отчёт EAC
EAC extraction logfile from 25. July 2007, 20:14 for CD
Quadro Nuevo / Canzone Della Strada
Used drive : HL-DT-STDVDRAM GSA-H10N Adapter: 0 ID: 1
Read mode : Secure with NO C2, accurate stream, disable cache
Read offset correction : 667
Overread into Lead-In and Lead-Out : No
Used output format : C:\Program Files\FLAC\flac.exe (User Defined Encoder)
320 kBit/s
Additional command line options : -V -5 -T "artist=%a" -T "title=%t" -T "album=%g" -T "date=%y" -T "tracknumber=%n" -T "genre=%m" %s
Other options :
Fill up missing offset samples with silence : Yes
Delete leading and trailing silent blocks : No
Installed external ASPI interface
Track 1
Filename H:\Music\MUSIC OF THE WORLD\Quadro Nuevo - Canzone Della Strada 2002\01 - Roma nun fа la stupida stasera.wav
Pre-gap length 0:00:02.00
Peak level 98.8 %
Track quality 100.0 %
Test CRC D333C79A
Copy CRC D333C79A
Copy OK
Track 2
Filename H:\Music\MUSIC OF THE WORLD\Quadro Nuevo - Canzone Della Strada 2002\02 - Tu vuo' fa' l'americano.wav
Pre-gap length 0:00:01.60
Peak level 98.8 %
Track quality 100.0 %
Test CRC 96C18932
Copy CRC 96C18932
Copy OK
Track 3
Filename H:\Music\MUSIC OF THE WORLD\Quadro Nuevo - Canzone Della Strada 2002\03 - La luna si veste d'argento.wav
Pre-gap length 0:00:01.60
Peak level 98.8 %
Track quality 100.0 %
Test CRC 67ADE8E9
Copy CRC 67ADE8E9
Copy OK
Track 4
Filename H:\Music\MUSIC OF THE WORLD\Quadro Nuevo - Canzone Della Strada 2002\04 - Chitarra romana.wav
Pre-gap length 0:00:01.60
Peak level 98.8 %
Track quality 99.9 %
Test CRC 534F8D3B
Copy CRC 534F8D3B
Copy OK
Track 5
Filename H:\Music\MUSIC OF THE WORLD\Quadro Nuevo - Canzone Della Strada 2002\05 - Serenata celeste.wav
Pre-gap length 0:00:01.60
Peak level 98.8 %
Track quality 100.0 %
Test CRC 62E0277A
Copy CRC 62E0277A
Copy OK
Track 6
Filename H:\Music\MUSIC OF THE WORLD\Quadro Nuevo - Canzone Della Strada 2002\06 - Canzone della strada.wav
Pre-gap length 0:00:01.60
Peak level 98.8 %
Track quality 100.0 %
Test CRC 5E32177F
Copy CRC 5E32177F
Copy OK
Track 7
Filename H:\Music\MUSIC OF THE WORLD\Quadro Nuevo - Canzone Della Strada 2002\07 - Valzer dottore.wav
Pre-gap length 0:00:01.60
Peak level 98.8 %
Track quality 100.0 %
Test CRC 12FBBA5F
Copy CRC 12FBBA5F
Copy OK
Track 8
Filename H:\Music\MUSIC OF THE WORLD\Quadro Nuevo - Canzone Della Strada 2002\08 - Tango del mare.wav
Pre-gap length 0:00:02.58
Peak level 98.8 %
Track quality 100.0 %
Test CRC 1C092986
Copy CRC 1C092986
Copy OK
Track 9
Filename H:\Music\MUSIC OF THE WORLD\Quadro Nuevo - Canzone Della Strada 2002\09 - Firenze sogna.wav
Pre-gap length 0:00:02.60
Peak level 98.8 %
Track quality 100.0 %
Test CRC 130243CA
Copy CRC 130243CA
Copy OK
Track 10
Filename H:\Music\MUSIC OF THE WORLD\Quadro Nuevo - Canzone Della Strada 2002\10 - Arrivederci Roma.wav
Pre-gap length 0:00:01.60
Peak level 98.8 %
Track quality 99.9 %
Test CRC 95DA9F5A
Copy CRC 95DA9F5A
Copy OK
Track 11
Filename H:\Music\MUSIC OF THE WORLD\Quadro Nuevo - Canzone Della Strada 2002\11 - Tarantella.wav
Pre-gap length 0:00:01.60
Peak level 98.8 %
Track quality 100.0 %
Test CRC EC67235C
Copy CRC EC67235C
Copy OK
Track 12
Filename H:\Music\MUSIC OF THE WORLD\Quadro Nuevo - Canzone Della Strada 2002\12 - Per il mio amore.wav
Pre-gap length 0:00:01.60
Peak level 98.8 %
Track quality 99.9 %
Test CRC ADB6D692
Copy CRC ADB6D692
Copy OK
Track 13
Filename H:\Music\MUSIC OF THE WORLD\Quadro Nuevo - Canzone Della Strada 2002\13 - Arrivederci.wav
Pre-gap length 0:00:01.60
Peak level 78.5 %
Track quality 100.0 %
Test CRC D3059BA3
Copy CRC D3059BA3
Copy OK
No errors occured
End of status report
23:13
361
Нет комментариев. Ваш будет первым!