Поиск

(Jazz, Standards) Charlie Byrd - For Louis - 2000, APE (image+.cue), lossless

(Jazz, Standards) Charlie Byrd - For Louis - 2000, APE (image+.cue), lossless
Треклист:
Charlie Byrd - For Louis
Жанр: Jazz, Standards
Издание: CONCORD JAZZ, CCD-4879-2, 2000 год
Аудио кодек: APE
Тип рипа: image+.cue
Битрейт: lossless
Продолжительность: 0:58:37
Трэклист:
01. Petite Fleur
02. Remembering Louis Armstrong
03. Kiss To Build A Dream On, A
04. Autumn In New York City
05. Hello Dolly
06. Tin Roof Blues
07. Soft Lights And Sweet Music
08. Child Is Born, A
09. Struttin' With Some Barbecue
10. Indian Summer
11. Rosetta
12. What A Wonderful World
Персоналии:
Charlie Byrd - nylon-string guitar
Dennis Irwin - bass
Chuck Redd - drums
Robert Redd - piano
Joe Wilder - trumpet (tracks 2,3,5,6,7,9,12)
Steve Wilson - saxophones (tracks 1,2,4,7,8,10,11)
 
Отчёт EAC
Exact Audio Copy V0.99 prebeta 4 from 23. January 2008
Отчёт EAC об извлечении, выполненном 14. июня 2009, 12:40
Charlie Byrd / For Louis
Дисковод: PIONEER DVD-RW DVR-108 Adapter: 4 ID: 1
Режим чтения : Достоверность
Использование точного потока : Да
Отключение кэша аудио : Да
Использование указателей C2 : Нет
Коррекция смещения при чтении : 48
Способность читать области Lead-in и Lead-out : Нет
Заполнение пропущенных сэмплов тишиной : Да
Удаление блоков с тишиной в начале и конце : Нет
При вычислениях CRC использовались нулевые сэмплы : Да
Интерфейс : Встроенный Win32-интерфейс для Win NT/2000
Выходной формат : Внутренние WAV-операции
Формат сэмплов : 44.100 Гц; 16 бит; стерео
TOC извлечённого CD
Трек | Старт | Длительность | Начальный сектор | Конечный сектор
---------------------------------------------------------------------
1 | 0:00.00 | 5:09.55 | 0 | 23229
2 | 5:09.55 | 4:20.11 | 23230 | 42740
3 | 9:29.66 | 5:05.33 | 42741 | 65648
4 | 14:35.24 | 6:48.11 | 65649 | 96259
5 | 21:23.35 | 4:07.06 | 96260 | 114790
6 | 25:30.41 | 5:05.30 | 114791 | 137695
7 | 30:35.71 | 5:04.41 | 137696 | 160536
8 | 35:40.37 | 4:22.64 | 160537 | 180250
9 | 40:03.26 | 4:49.42 | 180251 | 201967
10 | 44:52.68 | 4:04.53 | 201968 | 220320
11 | 48:57.46 | 4:40.40 | 220321 | 241360
12 | 53:38.11 | 4:59.16 | 241361 | 263801
Характеристики диапазона извлечения и сообщения об ошибках
Выбранный диапазон
Имя файла J:\New Torrents\Charlie Byrd - For Louis\Charlie Byrd - For Louis.wav
Пиковый уровень 83.5 %
Качество диапазона 100.0 %
CRC копии 7543C074
Копирование... OK
Ошибок не произошло
AccurateRip: сводка
Трек 1 точность не определена (достоверность 1) [C3C5C3D2], AccurateRip вернул [1A4FC92A]
Трек 2 точность не определена (достоверность 1) [4607C790], AccurateRip вернул [E44C941F]
Трек 3 точность не определена (достоверность 1) [907B2988], AccurateRip вернул [E1A8E3B6]
Трек 4 точность не определена (достоверность 1) [1681F686], AccurateRip вернул [517C0CAA]
Трек 5 точность не определена (достоверность 1) [8B6761ED], AccurateRip вернул [1D6EC62D]
Трек 6 точность не определена (достоверность 1) [4715C3D9], AccurateRip вернул [B118A400]
Трек 7 точность не определена (достоверность 1) [5EF31F1F], AccurateRip вернул [14D20B35]
Трек 8 точность не определена (достоверность 1) [EAABCA95], AccurateRip вернул [ECE8168B]
Трек 9 точность не определена (достоверность 1) [788DBC74], AccurateRip вернул [19D401BB]
Трек 10 точность не определена (достоверность 1) [B8AD3BA2], AccurateRip вернул [4A78B0CE]
Трек 11 точность не определена (достоверность 1) [64761055], AccurateRip вернул [F440BC7F]
Трек 12 точность не определена (достоверность 1) [C4EFC80A], AccurateRip вернул [1D1D11F0]
Ни один трек не прошёл проверки на точность
В вашей базе может быть иной вариант штамповки диска
Конец отчёта
Красивейший диск, одна из последних записей Charlie Byrd`а...
AccurateRip ругнулся...
В раздачу включены сканы 12-ти страничного букдета (300dpi, tif) на 92.6 Мб - кто следит за траффиком - можно съэкономить...
Найти другие раздачи Charlie Byrd`а можно по ссылке
Download available for power users only.
06:41
206
Нет комментариев. Ваш будет первым!