Поиск

(African Jazz) Hugh Masekela - Revival - 2004, FLAC (tracks+.cue), lossless

Треклист:
Hugh Masekela - Revival
Жанр: African Jazz
Год выпуска диска: 2004
Производитель диска: Republic of South Africa
Аудио кодек: FLAC
Тип рипа: tracks+.cue
Битрейт аудио: lossless
Продолжительность: 64:28
Трэклист:
1. Ater Tears
2. Woman of the Sun
3. Spring
4. District Six
5. Open the Door
6. Nontsokolo
7. Fresh Air
8. Smoke
9. Ibala Lam
10. Sleep
11. For the Love of You
12. Working Underground
 
Лог EAC
Exact Audio Copy V0.99 prebeta 4 from 23. January 2008
EAC extraction logfile from 13. June 2009, 13:20
Hugh Masekela / Revival
Used drive : HL-DT-STDVDRAM GSA-H44N Adapter: 0 ID: 0
Read mode : Secure
Utilize accurate stream : Yes
Defeat audio cache : Yes
Make use of C2 pointers : No
Read offset correction : 667
Overread into Lead-In and Lead-Out : No
Fill up missing offset samples with silence : Yes
Delete leading and trailing silent blocks : No
Null samples used in CRC calculations : Yes
Used interface : Installed external ASPI interface
Gap handling : Appended to previous track
Used output format : User Defined Encoder
Selected bitrate : 1024 kBit/s
Quality : High
Add ID3 tag : No
Command line compressor : C:\Program Files\Exact Audio Copy\FLAC\FLAC.EXE
Additional command line options : -8 -V -T "ARTIST=%a" -T "TITLE=%t" -T "ALBUM=%g" -T "DATE=%y" -T "TRACKNUMBER=%n" -T "GENRE=%m" -T "COMMENT=%e" %s -o %d
TOC of the extracted CD
Track | Start | Length | Start sector | End sector
---------------------------------------------------------
1 | 0:00.00 | 5:14.48 | 0 | 23597
2 | 5:14.48 | 5:32.48 | 23598 | 48545
3 | 10:47.21 | 7:19.48 | 48546 | 81518
4 | 18:06.69 | 6:19.48 | 81519 | 109991
5 | 24:26.42 | 7:05.48 | 109992 | 141914
6 | 31:32.15 | 5:54.48 | 141915 | 168512
7 | 37:26.63 | 5:49.48 | 168513 | 194735
8 | 43:16.36 | 4:49.48 | 194736 | 216458
9 | 48:06.09 | 5:09.48 | 216459 | 239681
10 | 53:15.57 | 5:36.48 | 239682 | 264929
11 | 58:52.30 | 4:49.48 | 264930 | 286652
12 | 63:42.03 | 6:42.48 | 286653 | 316850
Track 1
Filename D:\Torrent\Out\Hugh Masekela - Revival\1\01 - Ater Tears .wav
Pre-gap length 0:00:02.00
Peak level 97.7 %
Track quality 99.7 %
Test CRC 0CBD7E0A
Copy CRC 0CBD7E0A
Copy OK
Track 2
Filename D:\Torrent\Out\Hugh Masekela - Revival\1\02 - Woman of the Sun .wav
Peak level 97.7 %
Track quality 100.0 %
Test CRC D6C04E46
Copy CRC D6C04E46
Copy OK
Track 3
Filename D:\Torrent\Out\Hugh Masekela - Revival\1\03 - Spring .wav
Peak level 99.9 %
Track quality 99.9 %
Test CRC 9F239D59
Copy CRC 9F239D59
Copy OK
Track 4
Filename D:\Torrent\Out\Hugh Masekela - Revival\1\04 - District Six .wav
Peak level 98.8 %
Track quality 100.0 %
Test CRC AAEDC77C
Copy CRC AAEDC77C
Copy OK
Track 5
Filename D:\Torrent\Out\Hugh Masekela - Revival\1\05 - Open the Door .wav
Peak level 99.9 %
Track quality 100.0 %
Test CRC 14833AD3
Copy CRC 14833AD3
Copy OK
Track 6
Filename D:\Torrent\Out\Hugh Masekela - Revival\1\06 - Nontsokolo .wav
Peak level 98.8 %
Track quality 99.9 %
Test CRC 24399492
Copy CRC 24399492
Copy OK
Track 7
Filename D:\Torrent\Out\Hugh Masekela - Revival\1\07 - Fresh Air .wav
Peak level 96.6 %
Track quality 99.9 %
Test CRC 52B126FE
Copy CRC 52B126FE
Copy OK
Track 8
Filename D:\Torrent\Out\Hugh Masekela - Revival\1\08 - Smoke .wav
Peak level 98.8 %
Track quality 100.0 %
Test CRC AFF60CE0
Copy CRC AFF60CE0
Copy OK
Track 9
Filename D:\Torrent\Out\Hugh Masekela - Revival\1\09 - Ibala Lam .wav
Peak level 97.7 %
Track quality 100.0 %
Test CRC AF776739
Copy CRC AF776739
Copy OK
Track 10
Filename D:\Torrent\Out\Hugh Masekela - Revival\1\10 - Sleep .wav
Peak level 98.8 %
Track quality 100.0 %
Test CRC 26FDDBCA
Copy CRC 26FDDBCA
Copy OK
Track 11
Filename D:\Torrent\Out\Hugh Masekela - Revival\1\11 - For the Love of You .wav
Peak level 98.8 %
Track quality 100.0 %
Test CRC 0C6281EC
Copy CRC 0C6281EC
Copy OK
Track 12
Filename D:\Torrent\Out\Hugh Masekela - Revival\1\12 - Working Underground .wav
Peak level 99.9 %
Track quality 100.0 %
Test CRC 310076C4
Copy CRC 310076C4
Copy OK
No errors occurred
End of status report
Download available for power users only.
06:40
261
Нет комментариев. Ваш будет первым!